Obsah fóra

lamky.net banner
Registrácia  •  Prihlásenie
 Hráči se smrtí / Flatliners ( 1990 ) Zobraziť nasledujúcu tému
Zobraziť predchádzajúcu tému

Pridat tému do záložiek
Odpovedať na tému Thank Post
Autor Správa
sniper00   
Warezák


Založený: 15.08.2009
Príspevky: 274
SMS donate: 0

PríspevokZaslal: Ut Dec 05, 2017 16:48 pm Odpovedať s citátomCelkom dole

Image


Image

Linky sa zobrazia až po prihlásení. Prihlás sa
Chces vidieť plný obsah a nie si zaregistrovaný? Zaregistruj sa


Image
D:\prenos\Hráči se smrti Flatliners 1080p Bluray x264 Cz dab 1990.mkv
General
Unique ID : 186595756124573428438194162279963983457 (0x8C61091163A8039094DE7AC5F3A07E61)
Complete name : D:\prenos\Hráči se smrti Flatliners 1080p Bluray x264 Cz dab 1990.mkv
Format : Matroska
Format version : Version 2
File size : 11.2 GiB
Duration : 1h 54mn
Overall bit rate mode : Variable
Overall bit rate : 14.0 Mbps
Encoded date : UTC 2012-03-24 20:39:01
Writing application : mkvmerge v5.4.0 ('Piper') built on Mar 10 2012 13:34:39
Writing library : libebml v1.2.3 + libmatroska v1.3.0
Video #1
ID : 1
Format : AVC
Format/Info : Advanced Video Codec
Format profile : High@L4.1
Format settings, CABAC : Yes
Format settings, ReFrames : 5 frames
Codec ID : V_MPEG4/ISO/AVC
Duration : 1h 54mn
Bit rate : 11.6 Mbps
Width : 1 920 pixels
Height : 816 pixels
Display aspect ratio : 2.35:1
Frame rate : 23.976 fps
Color space : YUV
Chroma subsampling : 4:2:0
Bit depth : 8 bits
Scan type : Progressive
Bits/(Pixel*Frame) : 0.309
Stream size : 9.52 GiB (85%)
Writing library : x264 core 89 r1471kGIT 1144615
Encoding settings : cabac=1 / ref=6 / deblock=1:-2:-2 / analyse=0x3:0x113 / me=umh / subme=9 / psy=1 / psy_rd=1.00:0.00 / mixed_ref=1 / me_range=32 / chroma_me=1 / trellis=2 / 8x8dct=1 / cqm=0 / deadzone=21,11 / fast_pskip=1 / chroma_qp_offset=-2 / threads=8 / sliced_threads=0 / nr=0 / decimate=1 / interlaced=0 / constrained_intra=0 / bframes=12 / b_pyramid=1 / b_adapt=2 / b_bias=0 / direct=2 / wpredb=1 / wpredp=2 / keyint=250 / keyint_min=25 / scenecut=40 / intra_refresh=0 / rc_lookahead=50 / rc=2pass / mbtree=1 / bitrate=11616 / ratetol=2.0 / qcomp=0.60 / qpmin=10 / qpmax=51 / qpstep=4 / cplxblur=20.0 / qblur=0.5 / vbv_maxrate=50000 / vbv_bufsize=50000 / ip_ratio=1.40 / aq=1:1.00 / pulldown=0 / nal_hrd=none
Language : English
Default : Yes
Forced : No
Audio #2
ID : 2
Format : AC-3
Format/Info : Audio Coding 3
Format profile : Dolby Digital
Mode extension : CM (complete main)
Format settings, Endianness : Big
Codec ID : A_AC3
Duration : 1h 54mn
Bit rate mode : Constant
Bit rate : 256 Kbps
Channel(s) : 2 channels
Channel positions : Front: L R
Sampling rate : 48.0 KHz
Bit depth : 16 bits
Compression mode : Lossy
Delay relative to video : 2ms
Stream size : 209 MiB (2%)
Language : Czech
Default : Yes
Forced : No
Audio #3
ID : 3
Format : DTS
Format/Info : Digital Theater Systems
Format profile : MA / Core
Codec ID : A_DTS
Duration : 1h 54mn
Bit rate mode : Variable
Bit rate : 1 561 Kbps / 1 510 Kbps
Channel(s) : 6 channels
Channel positions : Front: L C R, Side: L R, LFE
Sampling rate : 48.0 KHz
Bit depth : 16 bits
Compression mode : Lossless / Lossy
Language : English
Default : No
Forced : No
Text #4
ID : 4
Format : UTF-8
Codec ID : S_TEXT/UTF8
Codec ID/Info : UTF-8 Plain Text
Title : Czech
Language : Czech
Default : No
Forced : No
Text #5
ID : 5
Format : UTF-8
Codec ID : S_TEXT/UTF8
Codec ID/Info : UTF-8 Plain Text
Title : English
Language : English
Default : No
Forced : No
Jazyk : CZ Dabing



Image
Image

Linky sa zobrazia až po prihlásení. Prihlás sa
Chces vidieť plný obsah a nie si zaregistrovaný? Zaregistruj sa
Zobrazit informácie o autoroviOdoslať súkromnú správuICQ
Sťahuj z HELLSHARE neobmedzene bez premium účtu!
Zobraziť príspevky z predchádzajúcich:      
Odpovedať na tému Thank Post


 Prejdi na:   



Zobraziť nasledujúcu tému
Zobraziť predchádzajúcu tému
Nemôžete odosielať nové témy do tohto fóra
Nemôžete odpovedať na témy v tomto fóre
Nemôžete upravovať svoje príspevky v tomto fóre
Nemôžete mazať svoje príspevky v tomto fóre
Nemôžete hlasovať v tomto fóre


Upozornenie: Žiadny zo zobrazovaných súborov sa nenachádza na tomto serveri. Autor stránky neberie žiadnu zodpovednost za príspevky odoslané uživatelmi. Nepoužívajte tieto stránky k distribúcii alebo k downloadu akýchkolvek materiálov, ku ktorým nemáte legálne opravnenie alebo licenciu. Všetky príspevky sem vkladáte na vlastnú zodpovednost. Autor stránky odmieta akúkolvek zodpovednost za prípadne porušovanie zákonov. Kopírovanie obsahu bez písomného súhlasu autora stránky je trestné.
V prípade, že ste narazili na nelegálny obsah prosím okamžite kontaktujte administrátora portálu.



Powered by phpBB © 2005 phpBB Group :: Časy uvádzané v GMT + 1 hodina
[ Nacítanie: 0.1s ] :: [ 20 Queries ] :: [ 44,655 stránok za dnes ] :: [ Dnes DB: 772,482 ] :: [ Max DB: 13,059,503 ]