Obsah fóra

lamky.net banner
Registrácia  •  Prihlásenie
 Spider-Man: Homecoming / Spider-Man: Návrat domov (2017) Zobraziť nasledujúcu tému
Zobraziť predchádzajúcu tému

Pridat tému do záložiek
Odpovedať na tému Thank Post
Autor Správa
packet6   
Warezák


Založený: 18.11.2016
Príspevky: 300
SMS donate: 0

PríspevokZaslal: Ut Okt 03, 2017 20:12 pm Odpovedať s citátomCelkom dole

Spider-Man: Homecoming / Spider-Man: Návrat domov (2017)

Spider-Man.Homecoming.2017.720p.BluRay.x264.EN.DTS.AC3.5.1.CZTIT
Spider-Man.Homecoming.2017.1080p.BluRay.x264.EN.DTS.AC3.5.1.CZTIT


CSFD:

Linky sa zobrazia až po prihlásení. Prihlás sa
Chces vidieť plný obsah a nie si zaregistrovaný? Zaregistruj sa


Image

INFO:
Spider-Man.Homecoming.2017.720p.BluRay.x264.EN.DTS.AC3.5.1.CZTIT

Audio: EN 5.1 AC3, EN DTS
Subtitles: CZ


Linky sa zobrazia až po prihlásení. Prihlás sa
Chces vidieť plný obsah a nie si zaregistrovaný? Zaregistruj sa


DOWNLOAD:

Linky sa zobrazia až po prihlásení. Prihlás sa
Chces vidieť plný obsah a nie si zaregistrovaný? Zaregistruj sa


**********************************************

INFO:
Spider-Man.Homecoming.2017.1080p.BluRay.x264.EN.DTS.AC3.5.1.CZTIT

Audio: EN 5.1 AC3, EN DTS
Subtitles: CZ


Linky sa zobrazia až po prihlásení. Prihlás sa
Chces vidieť plný obsah a nie si zaregistrovaný? Zaregistruj sa


DOWNLOAD:

Linky sa zobrazia až po prihlásení. Prihlás sa
Chces vidieť plný obsah a nie si zaregistrovaný? Zaregistruj sa
Zobrazit informácie o autoroviOdoslať súkromnú správu
Podakovania: Venom17, je vdačný za túto tému.
desolation   
Warezák


Založený: 19.04.2014
Príspevky: 1742
SMS donate: 0

PríspevokZaslal: Ut Nov 07, 2017 18:31 pm Odpovedať s citátomCelkom dole

Spider-Man: Homecoming / Spider-Man: Homecoming / 2107


Spider.Man.Homecoming.2017.CZ.720p.BluRay.x264.DD5.1
Spider.Man.Homecoming.2017.CZ.1080p.BluRay.x264.DD5.1


Audio: Czech, English
Subtitles: Czech (f), Czech, Slovak, English

Image


Linky sa zobrazia až po prihlásení. Prihlás sa
Chces vidieť plný obsah a nie si zaregistrovaný? Zaregistruj sa


Spider.Man.Homecoming.2017.CZ.720p.BluRay.x264.DD5.1

Linky sa zobrazia až po prihlásení. Prihlás sa
Chces vidieť plný obsah a nie si zaregistrovaný? Zaregistruj sa



Linky sa zobrazia až po prihlásení. Prihlás sa
Chces vidieť plný obsah a nie si zaregistrovaný? Zaregistruj sa




*******



Spider.Man.Homecoming.2017.CZ.1080p.BluRay.x264.DD5.1

Linky sa zobrazia až po prihlásení. Prihlás sa
Chces vidieť plný obsah a nie si zaregistrovaný? Zaregistruj sa



Linky sa zobrazia až po prihlásení. Prihlás sa
Chces vidieť plný obsah a nie si zaregistrovaný? Zaregistruj sa



NO PASSWORD
Zobrazit informácie o autoroviOdoslať súkromnú správu
browing3006   
Warezák


Založený: 14.05.2014
Príspevky: 1146
SMS donate: 0

PríspevokZaslal: St Nov 08, 2017 7:10 am Odpovedať s citátomCelkom dole

Spider-Man: Homecoming / Spider-Man: Homecoming (2017)

CSFD:


Linky sa zobrazia až po prihlásení. Prihlás sa
Chces vidieť plný obsah a nie si zaregistrovaný? Zaregistruj sa


Image


Spider-Man.Homecoming.2017.720p.BluRay.x264.DD5.1.CZ
Spider-Man.Homecoming.2017.1080p.BluRay.x264.DD5.1.CZ
Spider-Man.Homecoming.2017.1080p.BluRay.x264.DD5.1.CZ
Spider-Man.Homecoming.2017.1080p.BluRay.REMUX.x264.DD5.1.CZ


Spider-Man.Homecoming.2017.720p.BluRay.x264.DD5.1.CZ
Jazyk: Czech 5,1 448 Kbps , English 5.1 640 Kbps
Subtitles: Czech forced , Czech , Slovak , English

iNFO


Linky sa zobrazia až po prihlásení. Prihlás sa
Chces vidieť plný obsah a nie si zaregistrovaný? Zaregistruj sa


Image

Linky sa zobrazia až po prihlásení. Prihlás sa
Chces vidieť plný obsah a nie si zaregistrovaný? Zaregistruj sa


Linky sa zobrazia až po prihlásení. Prihlás sa
Chces vidieť plný obsah a nie si zaregistrovaný? Zaregistruj sa

Přidán záznam na opravu dat 5%.
Spider-Man.Homecoming.2017.1080p.BluRay.x264.DD5.1.CZ
Jazyk: Czech 5.1 448 Kbps , English 5.1 640 Kbps
Subtitles: Cxech forced , Czech , Slovak , English
iNFO


Linky sa zobrazia až po prihlásení. Prihlás sa
Chces vidieť plný obsah a nie si zaregistrovaný? Zaregistruj sa


Image

Linky sa zobrazia až po prihlásení. Prihlás sa
Chces vidieť plný obsah a nie si zaregistrovaný? Zaregistruj sa


Linky sa zobrazia až po prihlásení. Prihlás sa
Chces vidieť plný obsah a nie si zaregistrovaný? Zaregistruj sa

Přidán záznam na opravu dat 5%.
Spider-Man.Homecoming.2017.1080p.BluRay.x264.DD5.1.CZ
Jazyk: Czech 5.1 448 Kbps , English 5.1 640 Kbps
Subtitles: Czech forced , Czech , Slovak , English
iNFO


Linky sa zobrazia až po prihlásení. Prihlás sa
Chces vidieť plný obsah a nie si zaregistrovaný? Zaregistruj sa


Image

Linky sa zobrazia až po prihlásení. Prihlás sa
Chces vidieť plný obsah a nie si zaregistrovaný? Zaregistruj sa

Přidán záznam na opravu dat 5%.
Spider-Man.Homecoming.2017.1080p.BluRay.REMUX.x264.DD5.1.CZ
Jazyk: Czech 5.1 448 Kbps , English 5.1 640 Kbps
Subtitles: Czech forced , Czech , Slovak , English
iNFO


Linky sa zobrazia až po prihlásení. Prihlás sa
Chces vidieť plný obsah a nie si zaregistrovaný? Zaregistruj sa


Image

Linky sa zobrazia až po prihlásení. Prihlás sa
Chces vidieť plný obsah a nie si zaregistrovaný? Zaregistruj sa

Přidán záznam na opravu dat 5%.
Zobrazit informácie o autoroviOdoslať súkromnú správu
freesby89   
Warezák


Založený: 30.05.2014
Príspevky: 505
SMS donate: 0

PríspevokZaslal: St Nov 08, 2017 14:04 pm Odpovedať s citátomCelkom dole

Spider-Man.Homecoming.2017.1080p.BluRay.REMUX.AVC.DTS-HD.MA.5.1-CZ.FGT

Cover:Image

Linky sa zobrazia až po prihlásení. Prihlás sa
Chces vidieť plný obsah a nie si zaregistrovaný? Zaregistruj sa

Csfd:

Linky sa zobrazia až po prihlásení. Prihlás sa
Chces vidieť plný obsah a nie si zaregistrovaný? Zaregistruj sa

Info:

Linky sa zobrazia až po prihlásení. Prihlás sa
Chces vidieť plný obsah a nie si zaregistrovaný? Zaregistruj sa


Download:

Linky sa zobrazia až po prihlásení. Prihlás sa
Chces vidieť plný obsah a nie si zaregistrovaný? Zaregistruj sa
Zobrazit informácie o autoroviOdoslať súkromnú správu
sniper00   
Warezák


Založený: 15.08.2009
Príspevky: 274
SMS donate: 0

PríspevokZaslal: Št Nov 09, 2017 22:48 pm Odpovedať s citátomCelkom dole

Image


Image

Linky sa zobrazia až po prihlásení. Prihlás sa
Chces vidieť plný obsah a nie si zaregistrovaný? Zaregistruj sa


Image
D:\prenos\Spider-Man.Homecoming.2017.INTERNAL.720p.BluRay.CRF.x264-SAPHiRE.mkv
General
Unique ID : 208696686342226804715054364902333188808 (0x9D01850E790E40C28657B2D8789D8AC8)
Complete name : D:\prenos\Spider-Man.Homecoming.2017.INTERNAL.720p.BluRay.CRF.x264-SAPHiRE.mkv
Format : Matroska
Format version : Version 4 / Version 2
File size : 5.01 GiB
Duration : 2 h 13 min
Overall bit rate : 5 376 kb/s
Movie name : Spider.Man.Homecoming.2017.CZ.BRRip.x264.DD5.1-BST
Encoded date : UTC 2017-11-07 20:20:08
Writing application : mkvmerge v7.9.0 ('Birds') 64bit
Writing library : libebml v1.3.1 + libmatroska v1.4.2
Video #1
ID : 1
Format : AVC
Format/Info : Advanced Video Codec
Format profile : High@L4.1
Format settings, CABAC : Yes
Format settings, ReFrames : 12 frames
Codec ID : V_MPEG4/ISO/AVC
Duration : 2 h 13 min
Bit rate : 2 583 kb/s
Width : 1 280 pixels
Height : 534 pixels
Display aspect ratio : 2.40:1
Frame rate mode : Constant
Frame rate : 23.976 (24000/1001) FPS
Color space : YUV
Chroma subsampling : 4:2:0
Bit depth : 8 bits
Scan type : Progressive
Bits/(Pixel*Frame) : 0.158
Stream size : 2.41 GiB (48%)
Writing library : x264 core 152 r2851 ba24899
Encoding settings : cabac=1 / ref=12 / deblock=1:0:0 / analyse=0x3:0x133 / me=umh / subme=10 / psy=1 / psy_rd=1.00:0.00 / mixed_ref=1 / me_range=24 / chroma_me=1 / trellis=2 / 8x8dct=1 / cqm=0 / deadzone=21,11 / fast_pskip=1 / chroma_qp_offset=-2 / threads=24 / lookahead_threads=4 / sliced_threads=0 / nr=0 / decimate=1 / interlaced=0 / bluray_compat=0 / constrained_intra=0 / bframes=8 / b_pyramid=2 / b_adapt=2 / b_bias=0 / direct=3 / weightb=1 / open_gop=0 / weightp=2 / keyint=240 / keyint_min=24 / scenecut=40 / intra_refresh=0 / rc_lookahead=60 / rc=crf / mbtree=1 / crf=17.0 / qcomp=0.60 / qpmin=0 / qpmax=69 / qpstep=4 / ip_ratio=1.40 / aq=1:1.00
Language : English
Default : Yes
Forced : No
Audio #2
ID : 2
Format : AC-3
Format/Info : Audio Coding 3
Mode extension : CM (complete main)
Format settings, Endianness : Big
Codec ID : A_AC3
Duration : 2 h 13 min
Bit rate mode : Constant
Bit rate : 448 kb/s
Channel(s) : 6 channels
Channel positions : Front: L C R, Side: L R, LFE
Sampling rate : 48.0 kHz
Frame rate : 31.250 FPS (1536 spf)
Compression mode : Lossy
Stream size : 428 MiB (8%)
Title : Czech
Language : Czech
Default : No
Forced : Yes
Audio #3
ID : 3
Format : DTS
Format/Info : Digital Theater Systems
Format profile : MA / Core
Mode : 16
Format settings, Endianness : Big
Codec ID : A_DTS
Duration : 2 h 13 min
Bit rate mode : Variable / Constant
Bit rate : 2 342 kb/s / 1 509 kb/s
Channel(s) : 6 channels
Channel positions : Front: L C R, Side: L R, LFE
Sampling rate : 48.0 kHz
Frame rate : 93.750 FPS (512 spf)
Bit depth : 16 bits
Compression mode : Lossless / Lossy
Stream size : 2.18 GiB (44%)
Language : English
Default : No
Forced : No
Text #4
ID : 4
Format : UTF-8
Codec ID : S_TEXT/UTF8
Codec ID/Info : UTF-8 Plain Text
Duration : 2 h 12 min
Bit rate : 58 b/s
Count of elements : 1556
Stream size : 57.1 KiB (0%)
Title : Czech
Language : Czech
Default : No
Forced : No
Text #5
ID : 5
Format : UTF-8
Codec ID : S_TEXT/UTF8
Codec ID/Info : UTF-8 Plain Text
Duration : 1 h 53 min
Bit rate : 0 b/s
Count of elements : 10
Stream size : 205 Bytes (0%)
Title : Czech Forced
Language : Czech
Default : Yes
Forced : Yes
Text #6
ID : 6
Format : UTF-8
Codec ID : S_TEXT/UTF8
Codec ID/Info : UTF-8 Plain Text
Duration : 2 h 12 min
Bit rate : 66 b/s
Count of elements : 1839
Stream size : 64.1 KiB (0%)
Title : English
Language : English
Default : No
Forced : No
Jazyk : CZ Dabing



Image
Image

Linky sa zobrazia až po prihlásení. Prihlás sa
Chces vidieť plný obsah a nie si zaregistrovaný? Zaregistruj sa


Image
D:\prenos\Spider-Man Homecoming.mkv
General
Unique ID : 198222385367724061373011168861310736313 (0x95203E25B3344C8CA46777A047CCD7B9)
Complete name : D:\prenos\Spider-Man Homecoming.mkv
Format : Matroska
Format version : Version 2
File size : 15.8 GiB
Duration : 2 h 13 min
Overall bit rate : 17.0 Mb/s
Movie name : Spider-Man.Homecoming.2017.1080p.BluRay.REMUX.AVC.DTS-HD.MA.5.1-FGT
Encoded date : UTC 2017-11-07 18:16:41
Writing application : mkvmerge v2.9.9 ('Tutu') built on Nov 25 2009 21:13:32
Writing library : libebml v0.7.9 + libmatroska v0.8.1
Video #1
ID : 1
Format : AVC
Format/Info : Advanced Video Codec
Format profile : High@L4.1
Format settings, CABAC : No
Format settings, ReFrames : 4 frames
Codec ID : V_MPEG4/ISO/AVC
Duration : 2 h 13 min
Bit rate : 15.0 Mb/s
Width : 1 920 pixels
Height : 804 pixels
Display aspect ratio : 2.40:1
Frame rate mode : Constant
Frame rate : 23.976 (24000/1001) FPS
Color space : YUV
Chroma subsampling : 4:2:0
Bit depth : 8 bits
Scan type : Progressive
Bits/(Pixel*Frame) : 0.405
Stream size : 13.7 GiB (86%)
Writing library : x264 core 148 r2708 86b7198
Encoding settings : cabac=0 / ref=3 / deblock=0:0:0 / analyse=0x3:0x113 / me=hex / subme=7 / psy=1 / psy_rd=1.00:0.00 / mixed_ref=1 / me_range=16 / chroma_me=1 / trellis=1 / 8x8dct=1 / cqm=0 / deadzone=21,11 / fast_pskip=1 / chroma_qp_offset=-2 / threads=6 / lookahead_threads=1 / sliced_threads=0 / nr=0 / decimate=1 / interlaced=0 / bluray_compat=0 / constrained_intra=0 / bframes=3 / b_pyramid=2 / b_adapt=1 / b_bias=0 / direct=1 / weightb=0 / open_gop=0 / weightp=0 / keyint=240 / keyint_min=24 / scenecut=40 / intra_refresh=0 / rc_lookahead=40 / rc=2pass / mbtree=1 / bitrate=15000 / ratetol=1.0 / qcomp=0.60 / qpmin=0 / qpmax=69 / qpstep=4 / cplxblur=20.0 / qblur=0.5 / vbv_maxrate=62500 / vbv_bufsize=78125 / nal_hrd=none / filler=0 / ip_ratio=1.40 / aq=1:1.00
Default : No
Forced : No
Color range : Limited
Color primaries : BT.709
Transfer characteristics : BT.709
Matrix coefficients : BT.709
Audio #2
ID : 2
Format : DTS
Format/Info : Digital Theater Systems
Mode : 16
Format settings, Endianness : Big
Codec ID : A_DTS
Duration : 2 h 13 min
Bit rate mode : Constant
Bit rate : 1 509 kb/s
Channel(s) : 6 channels
Channel positions : Front: L C R, Side: L R, LFE
Sampling rate : 48.0 kHz
Frame rate : 93.750 FPS (512 spf)
Bit depth : 16 bits
Compression mode : Lossy
Delay relative to video : 11 ms
Stream size : 1.41 GiB (9%)
Title : ENG DTS 5.1 1509 kb/s
Language : English
Default : No
Forced : No
Audio #3
ID : 3
Format : AC-3
Format/Info : Audio Coding 3
Mode extension : CM (complete main)
Format settings, Endianness : Big
Codec ID : A_AC3
Duration : 2 h 13 min
Bit rate mode : Constant
Bit rate : 448 kb/s
Channel(s) : 6 channels
Channel positions : Front: L C R, Side: L R, LFE
Sampling rate : 48.0 kHz
Frame rate : 31.250 FPS (1536 spf)
Compression mode : Lossy
Stream size : 428 MiB (3%)
Title : CZ DD 5.1 448 kb/s
Language : Czech
Default : Yes
Forced : No
Text #4
ID : 4
Format : UTF-8
Codec ID : S_TEXT/UTF8
Codec ID/Info : UTF-8 Plain Text
Title : CZ
Language : Czech
Default : Yes
Forced : No
Text #5
ID : 5
Format : UTF-8
Codec ID : S_TEXT/UTF8
Codec ID/Info : UTF-8 Plain Text
Title : CZ forced
Language : Czech
Default : No
Forced : Yes
Jazyk : CZ Dabing



Image
Image

Linky sa zobrazia až po prihlásení. Prihlás sa
Chces vidieť plný obsah a nie si zaregistrovaný? Zaregistruj sa
Zobrazit informácie o autoroviOdoslať súkromnú správuICQ
Sťahuj z HELLSHARE neobmedzene bez premium účtu!
Zobraziť príspevky z predchádzajúcich:      
Odpovedať na tému Thank Post


 Prejdi na:   



Zobraziť nasledujúcu tému
Zobraziť predchádzajúcu tému
Nemôžete odosielať nové témy do tohto fóra
Nemôžete odpovedať na témy v tomto fóre
Nemôžete upravovať svoje príspevky v tomto fóre
Nemôžete mazať svoje príspevky v tomto fóre
Nemôžete hlasovať v tomto fóre


Upozornenie: Žiadny zo zobrazovaných súborov sa nenachádza na tomto serveri. Autor stránky neberie žiadnu zodpovednost za príspevky odoslané uživatelmi. Nepoužívajte tieto stránky k distribúcii alebo k downloadu akýchkolvek materiálov, ku ktorým nemáte legálne opravnenie alebo licenciu. Všetky príspevky sem vkladáte na vlastnú zodpovednost. Autor stránky odmieta akúkolvek zodpovednost za prípadne porušovanie zákonov. Kopírovanie obsahu bez písomného súhlasu autora stránky je trestné.
V prípade, že ste narazili na nelegálny obsah prosím okamžite kontaktujte administrátora portálu.



Powered by phpBB © 2005 phpBB Group :: Časy uvádzané v GMT + 1 hodina
[ Nacítanie: 0.3s ] :: [ 24 Queries ] :: [ 4,472 stránok za dnes ] :: [ Dnes DB: 90,495 ] :: [ Max DB: 13,059,503 ]