Obsah fóra

lamky.net banner
Registrácia  •  Prihlásenie
 Srážka / Collide (2016) Zobraziť nasledujúcu tému
Zobraziť predchádzajúcu tému

Pridat tému do záložiek
Odpovedať na tému Thank Post
Autor Správa
browing3006   
Warezák


Založený: 14.05.2014
Príspevky: 1114
SMS donate: 0

PríspevokZaslal: So Aug 26, 2017 21:27 pm Odpovedať s citátomCelkom dole

Srážka / Collide (2016)

CSFD:


Linky sa zobrazia až po prihlásení. Prihlás sa
Chces vidieť plný obsah a nie si zaregistrovaný? Zaregistruj sa


Image

Collide.2016.BDRip.XviD.MP3.CZ
Collide.2016.480p.BDRip.XviD.AC3.CZ
Collide.2016.720p.BDRip.XviD.AC3.CZ


Collide.2016.BDRip.XviD.MP3.CZ
Jazyk: Czech
Subtitles: Czech forced

iNFO


Linky sa zobrazia až po prihlásení. Prihlás sa
Chces vidieť plný obsah a nie si zaregistrovaný? Zaregistruj sa



Image

Linky sa zobrazia až po prihlásení. Prihlás sa
Chces vidieť plný obsah a nie si zaregistrovaný? Zaregistruj sa

Collide.2016.480p.BDRip.XviD.AC3.CZ

iNFO


Linky sa zobrazia až po prihlásení. Prihlás sa
Chces vidieť plný obsah a nie si zaregistrovaný? Zaregistruj sa


Image

Linky sa zobrazia až po prihlásení. Prihlás sa
Chces vidieť plný obsah a nie si zaregistrovaný? Zaregistruj sa

Collide.2016.720p.BDRip.XviD.AC3.CZ

iNFO


Linky sa zobrazia až po prihlásení. Prihlás sa
Chces vidieť plný obsah a nie si zaregistrovaný? Zaregistruj sa


Image

Linky sa zobrazia až po prihlásení. Prihlás sa
Chces vidieť plný obsah a nie si zaregistrovaný? Zaregistruj sa

Subs: Czech forced

Linky sa zobrazia až po prihlásení. Prihlás sa
Chces vidieť plný obsah a nie si zaregistrovaný? Zaregistruj sa
Zobrazit informácie o autoroviOdoslať súkromnú správu
Podakovania: v214, Olap, cikyno, miko2310, sú vdační za túto tému.
jankonosko   
Uploader


Založený: 29.11.2009
Príspevky: 1297
SMS donate: 0

PríspevokZaslal: So Aug 26, 2017 21:44 pm Odpovedať s citátomCelkom dole

Image

Collide
BRRip, CZ


Linky sa zobrazia až po prihlásení. Prihlás sa
Chces vidieť plný obsah a nie si zaregistrovaný? Zaregistruj sa


Akční / Thriller
Velká Británie / Německo, 2016


Image


Linky sa zobrazia až po prihlásení. Prihlás sa
Chces vidieť plný obsah a nie si zaregistrovaný? Zaregistruj sa



Linky sa zobrazia až po prihlásení. Prihlás sa
Chces vidieť plný obsah a nie si zaregistrovaný? Zaregistruj sa



Linky sa zobrazia až po prihlásení. Prihlás sa
Chces vidieť plný obsah a nie si zaregistrovaný? Zaregistruj sa


...............................................................................................



Linky sa zobrazia až po prihlásení. Prihlás sa
Chces vidieť plný obsah a nie si zaregistrovaný? Zaregistruj sa



Linky sa zobrazia až po prihlásení. Prihlás sa
Chces vidieť plný obsah a nie si zaregistrovaný? Zaregistruj sa


.............................................................................................



Linky sa zobrazia až po prihlásení. Prihlás sa
Chces vidieť plný obsah a nie si zaregistrovaný? Zaregistruj sa



Linky sa zobrazia až po prihlásení. Prihlás sa
Chces vidieť plný obsah a nie si zaregistrovaný? Zaregistruj sa
Zobrazit informácie o autoroviOdoslať súkromnú správu
sniper00   
Warezák


Založený: 15.08.2009
Príspevky: 274
SMS donate: 0

PríspevokZaslal: So Dec 09, 2017 1:23 am Odpovedať s citátomCelkom dole

Image


Image

Linky sa zobrazia až po prihlásení. Prihlás sa
Chces vidieť plný obsah a nie si zaregistrovaný? Zaregistruj sa


Image
D:\euridika\Srážka - Collide (2016).avi
General
Complete name : D:\euridika\Srážka - Collide (2016).avi
Format : AVI
Format/Info : Audio Video Interleave
File size : 1.31 GiB
Duration : 1h 38mn
Overall bit rate : 1 895 Kbps
Video #0
ID : 0
Format : MPEG-4 Visual
Format profile : Advanced Simple@L5
Format settings, BVOP : 2
Format settings, QPel : No
Format settings, GMC : No warppoints
Format settings, Matrix : Default (H.263)
Codec ID : XVID
Codec ID/Hint : XviD
Duration : 1h 38mn
Bit rate : 1 564 Kbps
Width : 720 pixels
Height : 304 pixels
Display aspect ratio : 2.35:1
Frame rate : 23.976 fps
Color space : YUV
Chroma subsampling : 4:2:0
Bit depth : 8 bits
Scan type : Progressive
Compression mode : Lossy
Bits/(Pixel*Frame) : 0.298
Stream size : 1.08 GiB (83%)
Writing library : XviD 66
Audio #1
ID : 1
Format : AC-3
Format/Info : Audio Coding 3
Mode extension : CM (complete main)
Format settings, Endianness : Big
Codec ID : 2000
Duration : 1h 38mn
Bit rate mode : Constant
Bit rate : 320 Kbps
Channel(s) : 2 channels
Channel positions : Front: L R
Sampling rate : 48.0 KHz
Bit depth : 16 bits
Compression mode : Lossy
Stream size : 226 MiB (17%)
Alignment : Aligned on interleaves
Interleave, duration : 32 ms (0.77 video frame)
Jazyk : CZ Dabing



Image
Image

Linky sa zobrazia až po prihlásení. Prihlás sa
Chces vidieť plný obsah a nie si zaregistrovaný? Zaregistruj sa
Zobrazit informácie o autoroviOdoslať súkromnú správuICQ
fajfo   
Warezák


Založený: 07.12.2017
Príspevky: 214
SMS donate: 0

PríspevokZaslal: So Dec 09, 2017 21:17 pm Odpovedať s citátomCelkom dole

Srážka / Collide CZ

Image

Image


Linky sa zobrazia až po prihlásení. Prihlás sa
Chces vidieť plný obsah a nie si zaregistrovaný? Zaregistruj sa



Kvalita


Linky sa zobrazia až po prihlásení. Prihlás sa
Chces vidieť plný obsah a nie si zaregistrovaný? Zaregistruj sa


DOWNLOAD

Image

Linky sa zobrazia až po prihlásení. Prihlás sa
Chces vidieť plný obsah a nie si zaregistrovaný? Zaregistruj sa
Zobrazit informácie o autoroviOdoslať súkromnú správu
Sťahuj z HELLSHARE neobmedzene bez premium účtu!
Zobraziť príspevky z predchádzajúcich:      
Odpovedať na tému Thank Post


 Prejdi na:   



Zobraziť nasledujúcu tému
Zobraziť predchádzajúcu tému
Nemôžete odosielať nové témy do tohto fóra
Nemôžete odpovedať na témy v tomto fóre
Nemôžete upravovať svoje príspevky v tomto fóre
Nemôžete mazať svoje príspevky v tomto fóre
Nemôžete hlasovať v tomto fóre


Upozornenie: Žiadny zo zobrazovaných súborov sa nenachádza na tomto serveri. Autor stránky neberie žiadnu zodpovednost za príspevky odoslané uživatelmi. Nepoužívajte tieto stránky k distribúcii alebo k downloadu akýchkolvek materiálov, ku ktorým nemáte legálne opravnenie alebo licenciu. Všetky príspevky sem vkladáte na vlastnú zodpovednost. Autor stránky odmieta akúkolvek zodpovednost za prípadne porušovanie zákonov. Kopírovanie obsahu bez písomného súhlasu autora stránky je trestné.
V prípade, že ste narazili na nelegálny obsah prosím okamžite kontaktujte administrátora portálu.



Powered by phpBB © 2005 phpBB Group :: Časy uvádzané v GMT + 1 hodina
[ Nacítanie: 0.2s ] :: [ 23 Queries ] :: [ 14,439 stránok za dnes ] :: [ Dnes DB: 271,686 ] :: [ Max DB: 13,059,503 ]