Obsah fóra

lamky.net banner
Registrácia  •  Prihlásenie
 Japonské konničiwa Zobraziť nasledujúcu tému
Zobraziť predchádzajúcu tému

Pridat tému do záložiek
Odpovedať na tému Thank Post
Autor Správa
cybernetic   
Nováčik


Založený: 07.12.2007
Príspevky: 94
SMS donate: 0
Bydlisko: East sidE - svk

PríspevokZaslal: St Jún 01, 2016 9:50 am Odpovedať s citátomCelkom dole

Japonské konničiwa

info

Linky sa zobrazia až po prihlásení. Prihlás sa
Chces vidieť plný obsah a nie si zaregistrovaný? Zaregistruj sa


Citácia:

Cieľom dokumentu pod názvom Japonské konniciwa pred Fukušimou je oboznámiť diváka s každodenným životom Japoncov a fungovaním ich spoločnosti v 21 storočí. Dokument hovorí o ich životných prioritách, systéme výchovy a vzdelávania na školách, o spôsobe výchovy k autoritám od najútlejšieho veku. Zaoberá sa pracovnými podmienkami, ktoré poskytujú japonskí zamestnávatelia, spôsobom organizovania ich života, systémom bývania, trávenia volného času ale aj zábavou a športom. Autori dokumentu sa podrobne zaoberajú aj životným štýlom aj najmodernejšími formami trávenia voľného času mladých Japoncov. Dôraz kladie aj na spôsob fungovania japonskej spoločnosti, ktorá vychádza z tradičných väzieb, pričom sa neustále vyrovnáva s vysokým počtom obyvateľov. Film je zameraný aj na problematiku projektovania administratívnych aj obytných domov. Ich výstavba je podmienená zložitými podmienkami zohľadňujúcimi seizmickosť územia, hornatý povrch a iné prírodné prekážky. Cieľ - predstaviť Japonsko ako modernú , dynamickú krajinu ako aj 3.najvyspelejšiu ekonomiku sveta a zároveň predstaviť ich stratégiu pre budúcnosť.(oficiální text distributora)



Citácia:
Format : AVI
Format/Info : Audio Video Interleave
File size : 350 MiB
Duration : 27mn 13s
Overall bit rate mode : Variable
Overall bit rate : 1 795 Kbps
Writing application : VirtualDubMod 1.5.10.2 (build 2540/release)
Writing library : VirtualDubMod build 2540/release

Video
ID : 0
Format : MPEG-4 Visual
Format profile : Advanced [email protected]
Format settings, BVOP : 2
Format settings, QPel : No
Format settings, GMC : No warppoints
Format settings, Matrix : Default (H.263)
Muxing mode : Packed bitstream
Codec ID : XVID
Codec ID/Hint : XviD
Duration : 27mn 13s
Bit rate : 1 663 Kbps
Width : 640 pixels
Height : 464 pixels
Display aspect ratio : 1.379
Frame rate : 25.000 fps
Color space : YUV
Chroma subsampling : 4:2:0
Bit depth : 8 bits
Scan type : Progressive
Compression mode : Lossy
Bits/(Pixel*Frame) : 0.224
Stream size : 324 MiB (93%)
Writing library : XviD 1.2.1 (UTC 2008-12-04)

Audio
ID : 1
Format : MPEG Audio
Format version : Version 1
Format profile : Layer 3
Mode : Joint stereo
Mode extension : MS Stereo
Codec ID : 55
Codec ID/Hint : MP3
Duration : 27mn 13s
Bit rate mode : Variable
Bit rate : 119 Kbps
Minimum bit rate : 32.0 Kbps
Channel(s) : 2 channels
Sampling rate : 48.0 KHz
Compression mode : Lossy
Stream size : 23.3 MiB (7%)
Alignment : Aligned on interleaves
Interleave, duration : 24 ms (0.60 video frame)
Interleave, preload duratio : 356 ms
Writing library : LAME3.98r
Encoding settings : -m j -V 5 -q 2 -lowpass 16.5 --vbr-new -b 32




Linky sa zobrazia až po prihlásení. Prihlás sa
Chces vidieť plný obsah a nie si zaregistrovaný? Zaregistruj sa
Zobrazit informácie o autoroviOdoslať súkromnú správu
---
Zobraziť príspevky z predchádzajúcich:      
Odpovedať na tému Thank Post


 Prejdi na:   



Zobraziť nasledujúcu tému
Zobraziť predchádzajúcu tému
Nemôžete odosielať nové témy do tohto fóra
Nemôžete odpovedať na témy v tomto fóre
Nemôžete upravovať svoje príspevky v tomto fóre
Nemôžete mazať svoje príspevky v tomto fóre
Nemôžete hlasovať v tomto fóre


Upozornenie: Žiadny zo zobrazovaných súborov sa nenachádza na tomto serveri. Autor stránky neberie žiadnu zodpovednost za príspevky odoslané uživatelmi. Nepoužívajte tieto stránky k distribúcii alebo k downloadu akýchkolvek materiálov, ku ktorým nemáte legálne opravnenie alebo licenciu. Všetky príspevky sem vkladáte na vlastnú zodpovednost. Autor stránky odmieta akúkolvek zodpovednost za prípadne porušovanie zákonov. Kopírovanie obsahu bez písomného súhlasu autora stránky je trestné.
V prípade, že ste narazili na nelegálny obsah prosím okamžite kontaktujte administrátora portálu.



Powered by phpBB © 2005 phpBB Group :: Časy uvádzané v GMT
[ Nacítanie: 0.2s ] :: [ 20 Queries ] :: [ 12,249 stránok za dnes ] :: [ Dnes DB: 236,028 ] :: [ Max DB: 13,059,503 ]