Obsah fóra

lamky.net banner
Registrácia  •  Prihlásenie
 Battlestar Galactica /CZ Zobraziť nasledujúcu tému
Zobraziť predchádzajúcu tému

Pridat tému do záložiek
Odpovedať na tému Thank Post
Autor Správa
sniper00   
Warezák


Založený: 15.08.2009
Príspevky: 272
SMS donate: 0

PríspevokZaslal: Pi Nov 17, 2017 11:51 am Odpovedať s citátomCelkom dole

[img]http://images.cdbaby.name/b/e/bearmccreary_large.jpg?v=bb3f639b-643f-453f-a27b-e798dfb8a1e9[/img]


Image

Linky sa zobrazia až po prihlásení. Prihlás sa
Chces vidieť plný obsah a nie si zaregistrovaný? Zaregistruj sa


Image
F:\Battlestar Galactica CZ\Battlestar Galactica CZ - 01x03 - Dobytí Bastily.avi
General
Complete name : F:\Battlestar Galactica CZ\Battlestar Galactica CZ - 01x03 - Dobytí Bastily.avi
Format : AVI
Format/Info : Audio Video Interleave
File size : 390 MiB
Duration : 41mn 59s
Overall bit rate mode : Variable
Overall bit rate : 1 298 Kbps
Writing application : VirtualDubMod 1.5.10.2 (build 2542/release)
Writing library : VirtualDubMod build 2542/release
Video #0
ID : 0
Format : MPEG-4 Visual
Format profile : Advanced [email protected]
Format settings, BVOP : No
Format settings, QPel : No
Format settings, GMC : No warppoints
Format settings, Matrix : Default (H.263)
Codec ID : XVID
Codec ID/Hint : XviD
Duration : 41mn 59s
Bit rate : 1 027 Kbps
Width : 576 pixels
Height : 320 pixels
Display aspect ratio : 16:9
Frame rate : 25.000 fps
Color space : YUV
Chroma subsampling : 4:2:0
Bit depth : 8 bits
Scan type : Progressive
Compression mode : Lossy
Bits/(Pixel*Frame) : 0.223
Stream size : 309 MiB (79%)
Writing library : XviD 1.0.1 (UTC 2004-06-05)
Audio #1
ID : 1
Format : MPEG Audio
Format version : Version 1
Format profile : Layer 3
Mode : Joint stereo
Mode extension : MS Stereo
Codec ID : 55
Codec ID/Hint : MP3
Duration : 41mn 56s
Bit rate mode : Constant
Bit rate : 128 Kbps
Channel(s) : 2 channels
Sampling rate : 44.1 KHz
Compression mode : Lossy
Stream size : 38.4 MiB (10%)
Alignment : Split accross interleaves
Interleave, duration : 40 ms (1.00 video frame)
Interleave, preload duration : 500 ms
Audio #2
ID : 2
Format : MPEG Audio
Format version : Version 1
Format profile : Layer 3
Mode : Joint stereo
Mode extension : MS Stereo
Codec ID : 55
Codec ID/Hint : MP3
Duration : 41mn 59s
Bit rate mode : Variable
Bit rate : 128 Kbps
Channel(s) : 2 channels
Sampling rate : 48.0 KHz
Compression mode : Lossy
Stream size : 37.5 MiB (10%)
Alignment : Aligned on interleaves
Interleave, duration : 24 ms (0.60 video frame)
Interleave, preload duration : 451 ms
Writing library : LAME3.93a
Encoding settings : -m j -V 4 -q 2 -lowpass 17.5 --abr 128
Jazyk : CZ Dabing



Image
Image

Linky sa zobrazia až po prihlásení. Prihlás sa
Chces vidieť plný obsah a nie si zaregistrovaný? Zaregistruj sa
Zobrazit informácie o autoroviOdoslať súkromnú správuICQ
Podakovania: mes-siah, Stanley98765, corey, sú vdační za túto tému.
---
Zobraziť príspevky z predchádzajúcich:      
Odpovedať na tému Thank Post


 Prejdi na:   



Zobraziť nasledujúcu tému
Zobraziť predchádzajúcu tému
Nemôžete odosielať nové témy do tohto fóra
Nemôžete odpovedať na témy v tomto fóre
Nemôžete upravovať svoje príspevky v tomto fóre
Nemôžete mazať svoje príspevky v tomto fóre
Nemôžete hlasovať v tomto fóre


Upozornenie: Žiadny zo zobrazovaných súborov sa nenachádza na tomto serveri. Autor stránky neberie žiadnu zodpovednost za príspevky odoslané uživatelmi. Nepoužívajte tieto stránky k distribúcii alebo k downloadu akýchkolvek materiálov, ku ktorým nemáte legálne opravnenie alebo licenciu. Všetky príspevky sem vkladáte na vlastnú zodpovednost. Autor stránky odmieta akúkolvek zodpovednost za prípadne porušovanie zákonov. Kopírovanie obsahu bez písomného súhlasu autora stránky je trestné.
V prípade, že ste narazili na nelegálny obsah prosím okamžite kontaktujte administrátora portálu.



Powered by phpBB © 2005 phpBB Group :: Časy uvádzané v GMT
[ Nacítanie: 0.1s ] :: [ 20 Queries ] :: [ 40,657 stránok za dnes ] :: [ Dnes DB: 769,061 ] :: [ Max DB: 13,059,503 ]