Obsah fóra

lamky.net banner
Registrácia  •  Prihlásenie
 Gogol. Strašnaja mesť / Gogol. Strashnaya mest (2018) Zobraziť nasledujúcu tému
Zobraziť predchádzajúcu tému

Pridat tému do záložiek
Odpovedať na tému Thank Post
Autor Správa
satisfaction   
Pokročilý


Založený: 19.05.2018
Príspevky: 176
SMS donate: 0

PríspevokZaslal: St Okt 10, 2018 17:43 pm Odpovedať s citátomCelkom dole

Гоголь.Страшная.месть.(2018)[WEB-DL][1080p]

Image

Jazyk: RUS
Titulky: NE



Dobrodružný / Krimi / Thriller

Rusko, 2017, 106 min

Režie: Jegor Baranov
Scénář: Tichon Korněv, Kim Belov
Kamera: Sergej Trofimov
Hudba: RyanOtter
Hrají: Alexandr Petrov, Oleg Meňšikov, Vitalij Kovalenko, Jevgenij Styčkin, Taisija Vilkova, Arťom Tkačenko, Jurij Utkin, Xenija Razina, Kirill Zajcev



Linky sa zobrazia až po prihlásení. Prihlás sa
Chces vidieť plný obsah a nie si zaregistrovaný? Zaregistruj sa



Linky sa zobrazia až po prihlásení. Prihlás sa
Chces vidieť plný obsah a nie si zaregistrovaný? Zaregistruj sa

Po Gogolově smrti ho Binh jmenuje vinným za smrt kozáků a mladých žen v rukou Temného jezdectví, protože ten, kdo jim nařídil, aby byli ukryty ve stodole. Bomgart není schopen provést postmortální analýzu těla Gogolu, zatímco dcera Vakulu Vasilina (která tajně má magické schopnosti) prohlašuje popření Gogola za zánik.

[spoiler]\Гоголь.Страшная.месть.2018.WEB-DL.[1080p].mkv
Format : Matroska
Format version : Version 2
File size : 3.64 GiB
Duration : 1 h 46 min
Overall bit rate : 4 883 kb/s
Movie name : Гоголь.Страшная.месть.2018.WEB-DL.[1080p]
Encoded date : UTC 2018-10-09 19:34:48
Writing application : mkvmerge v8.3.0 ('Over the Horizon') 64bit
Writing library : libebml v1.3.1 + libmatroska v1.4.2

Video
ID : 1
Format : AVC
Format/Info : Advanced Video Codec
Format profile : High@L4
Format settings, CABAC : Yes
Format settings, ReFrames : 5 frames
Codec ID : V_MPEG4/ISO/AVC
Duration : 1 h 46 min
Bit rate : 4 402 kb/s
Width : 1 908 pixels
Height : 796 pixels
Display aspect ratio : 2.40:1
Frame rate mode : Constant
Frame rate : 23.976 (24000/1001) FPS
Color space : YUV
Chroma subsampling : 4:2:0
Bit depth : 8 bits
Scan type : Progressive
Bits/(Pixel*Frame) : 0.121
Stream size : 3.28 GiB (90%)
Language : English
Default : Yes
Forced : No
Color range : Limited
Color primaries : BT.709
Transfer characteristics : BT.709
Matrix coefficients : BT.709

Audio
ID : 2
Format : AC-3
Format/Info : Audio Coding 3
Mode extension : CM (complete main)
Format settings, Endianness : Big
Codec ID : A_AC3
Duration : 1 h 46 min
Bit rate mode : Constant
Bit rate : 384 kb/s
Channel(s) : 6 channels
Channel positions : Front: L C R, Side: L R, LFE
Sampling rate : 48.0 kHz
Frame rate : 31.250 FPS (1536 spf)
Bit depth : 16 bits
Compression mode : Lossy
Stream size : 293 MiB (8%)
Language : Russian
Default : Yes
Forced : No

Menu
00:00:00.000 : en:1
00:02:58.000 : en:2
00:14:09.000 : en:3
00:25:12.000 : en:4
00:36:51.000 : en:5
00:45:53.000 : en:6
00:55:19.000 : en:7
01:04:47.000 : en:8
01:15:03.000 : en:9
01:25:43.000 : en:10
01:33:03.000 : en:11
01:42:17.000 : en:12

[/spoiler]



Linky sa zobrazia až po prihlásení. Prihlás sa
Chces vidieť plný obsah a nie si zaregistrovaný? Zaregistruj sa
Zobrazit informácie o autoroviOdoslať súkromnú správu
Sťahuj z HELLSHARE neobmedzene bez premium účtu!
Zobraziť príspevky z predchádzajúcich:      
Odpovedať na tému Thank Post


 Prejdi na:   



Zobraziť nasledujúcu tému
Zobraziť predchádzajúcu tému
Nemôžete odosielať nové témy do tohto fóra
Nemôžete odpovedať na témy v tomto fóre
Nemôžete upravovať svoje príspevky v tomto fóre
Nemôžete mazať svoje príspevky v tomto fóre
Nemôžete hlasovať v tomto fóre


Upozornenie: Žiadny zo zobrazovaných súborov sa nenachádza na tomto serveri. Autor stránky neberie žiadnu zodpovednost za príspevky odoslané uživatelmi. Nepoužívajte tieto stránky k distribúcii alebo k downloadu akýchkolvek materiálov, ku ktorým nemáte legálne opravnenie alebo licenciu. Všetky príspevky sem vkladáte na vlastnú zodpovednost. Autor stránky odmieta akúkolvek zodpovednost za prípadne porušovanie zákonov. Kopírovanie obsahu bez písomného súhlasu autora stránky je trestné.
V prípade, že ste narazili na nelegálny obsah prosím okamžite kontaktujte administrátora portálu.



Powered by phpBB © 2005 phpBB Group :: Časy uvádzané v GMT + 1 hodina
[ Nacítanie: 0.1s ] :: [ 20 Queries ] :: [ 4,070 stránok za dnes ] :: [ Dnes DB: 73,582 ] :: [ Max DB: 13,059,503 ]