Obsah fóra

lamky.net banner
Registrácia  •  Prihlásenie
 Thor: Ragnarok / Thor Ragnarok (2017) Zobraziť nasledujúcu tému
Zobraziť predchádzajúcu tému

Pridat tému do záložiek
Odpovedať na tému Thank Post
Autor Správa
desolation   
Warezák


Založený: 19.04.2014
Príspevky: 1741
SMS donate: 0

PríspevokZaslal: St Feb 28, 2018 0:18 am Odpovedať s citátomCelkom dole

Thor Ragnarok / 2017


Thor.Ragnarok.2017.3D.Half-OU.1080p.Blu-Ray.5.1.CZ


Audio: CZE (5.1),ENG
Subtitles: CZE(f),CZE

Image


Linky sa zobrazia až po prihlásení. Prihlás sa
Chces vidieť plný obsah a nie si zaregistrovaný? Zaregistruj sa


Thor.Ragnarok.2017.3D.Half-OU.1080p.Blu-Ray.5.1.CZ

Linky sa zobrazia až po prihlásení. Prihlás sa
Chces vidieť plný obsah a nie si zaregistrovaný? Zaregistruj sa



Linky sa zobrazia až po prihlásení. Prihlás sa
Chces vidieť plný obsah a nie si zaregistrovaný? Zaregistruj sa

nebo

Linky sa zobrazia až po prihlásení. Prihlás sa
Chces vidieť plný obsah a nie si zaregistrovaný? Zaregistruj sa


PASSWORD: NO
REUPLOAD NEDĚLÁM
Záznam pro opravu dat 3%
Zobrazit informácie o autoroviOdoslať súkromnú správu
freesby89   
Warezák


Založený: 30.05.2014
Príspevky: 662
SMS donate: 0

PríspevokZaslal: Ut Mar 13, 2018 0:07 am Odpovedať s citátomCelkom dole

Thor.Ragnarok.2017.1080p.3D.BluRay.Half-SBS.DTS-HD.MA7.1.x264-LoRD.CZ-HdDrOn.mkv


Cover:

Image

Info:


Linky sa zobrazia až po prihlásení. Prihlás sa
Chces vidieť plný obsah a nie si zaregistrovaný? Zaregistruj sa



Csfd:

Linky sa zobrazia až po prihlásení. Prihlás sa
Chces vidieť plný obsah a nie si zaregistrovaný? Zaregistruj sa

Info:
Thor.Ragnarok.2017.1080p.3D.BluRay.Half-SBS.DTS-HD.MA7.1.x264-LoRD.CZ-HdDrOn.mkv
Format: Matroska
Format version: Version 4 / Version 2
File size: 19.1 GiB
Duration: 2h 10mn
Overall bit rate: 21.0 Mbps
Movie name: Thor.Ragnarok.2017.1080p.3D.BluRay.Half-SBS.DTS-HD.MA7.1.x264-LoRD.CZ-HdDrOn
Encoded date: UTC 2018-03-01 17:50:48
Writing application: mkvmerge v17.0.0 ('Be Ur Friend'Wink 64-bit
Writing library: libebml v1.3.5 + libmatroska v1.4.8

Video
ID: 1
Format: AVC
Format/Info: Advanced Video Codec
Format profile: High@L4.1
MultiView_Count: 2
MultiView_Layout: Side by Side (left eye first)
Format settings, CABAC: Yes
Format settings, ReFrames: 5 frames
Codec ID: V_MPEG4/ISO/AVC
Duration: 2h 10mn
Bit rate: 15.4 Mbps
Width: 1 920 pixels
Height: 804 pixels
Display aspect ratio: 2.40:1
Frame rate mode: Constant
Frame rate: 23.976 (24000/1001) fps
Color space: YUV
Chroma subsampling: 4:2:0
Bit depth: 8 bits
Scan type: Progressive
Bits/(Pixel*Frame): 0.417
Stream size: 14.1 GiB (73%)
Writing library : x264 core 155 r2867+74 66b5600 t_mod_LoRD [8-bit@all X86_64]
Encoding settings: cabac=1 / ref=5 / deblock=1:-3:-3 / analyse=0x3:0x133 / me=umh / subme=11 / psy=1 / fade_compensate=0.00 / psy_rd=1.00:0.00 / mixed_ref=1 / me_range=32 / chroma_me=1 / trellis=2 / 8x8dct=1 / cqm=0 / deadzone=21,11 / fast_pskip=0 / chroma_qp_offset=-2 / threads=12 / lookahead_threads=2 / sliced_threads=0 / nr=0 / decimate=0 / interlaced=0 / bluray_compat=0 / constrained_intra=0 / fgo=0 / bframes=9 / b_pyramid=2 / b_adapt=2 / b_bias=0 / direct=3 / weightb=1 / open_gop=0 / weightp=2 / keyint=250 / keyint_min=23 / scenecut=40 / intra_refresh=0 / rc=crf / mbtree=0 / crf=14.0000 / qcomp=0.65 / qpmin=0:0:0 / qpmax=69:69:69 / qpstep=4 / frame-packing=3 / ip_ratio=1.30 / pb_ratio=1.20 / aq=3:0.80 / aq-sensitivity=10.00 / aq-factor=1.00:1.00:1.00 / aq2=0 / aq3=0
Default: Yes
Forced: No
Color range: Limited
Matrix coefficients: BT.709

Audio #1
ID: 2
Format: AC-3
Format/Info: Audio Coding 3
Mode extension: CM (complete main)
Format settings, Endianness: Big
Codec ID: A_AC3
Duration: 2h 10mn
Bit rate mode: Constant
Bit rate: 640 Kbps
Channel(s): 6 channels
Channel positions: Front: L C R, Side: L R, LFE
Sampling rate: 48.0 KHz
Frame rate: 31.250 fps (1536 spf)
Compression mode: Lossy
Stream size: 597 MiB (3%)
Title: Czech DD5.1
Language: Czech
Default: Yes
Forced: No

Audio #2
ID: 3
Format: DTS
Format/Info: Digital Theater Systems
Format profile: MA / Core
Mode: 16
Format settings, Endianness: Big
Codec ID: A_DTS
Duration: 2h 10mn
Bit rate mode: Variable / Constant
Bit rate: 4 891 Kbps / 1 509 Kbps
Channel(s): 8 channels / 6 channels
Channel positions: Front: L C R, Side: L R, Back: L R, LFE / Front: L C R, Side: L R, LFE
Sampling rate: 48.0 KHz
Frame rate: 93.750 fps (512 spf)
Bit depth: 24 bits
Compression mode: Lossless / Lossy
Stream size: 4.46 GiB (23%)
Title: English DTS-HD MA 7.1
Language: English
Default: No
Forced: No

Text #1
ID: 4
Format: PGS
Muxing mode: zlib
Codec ID: S_HDMV/PGS
Codec ID/Info: Picture based subtitle format used on BDs/HD-DVDs
Duration: 1h 56mn
Bit rate: 68 bps
Count of elements: 4
Stream size: 58.6 KiB (0%)
Title: Czech forced
Language: Czech
Default: Yes
Forced: Yes

Text #2
ID: 5
Format: PGS
Muxing mode: zlib
Codec ID: S_HDMV/PGS
Codec ID/Info: Picture based subtitle format used on BDs/HD-DVDs
Duration: 2h 9mn
Bit rate: 29.0 Kbps
Count of elements: 3134
Stream size: 26.9 MiB (0%)
Title: Czech
Language: Czech
Default: No
Forced: No

Text #3
ID: 6
Format: PGS
Muxing mode: zlib
Codec ID: S_HDMV/PGS
Codec ID/Info: Picture based subtitle format used on BDs/HD-DVDs
Duration: 2h 10mn
Bit rate: 59.4 Kbps
Count of elements: 4162
Stream size: 55.3 MiB (0%)
Title: English
Language: English
Default: No
Forced: No
Download:

Linky sa zobrazia až po prihlásení. Prihlás sa
Chces vidieť plný obsah a nie si zaregistrovaný? Zaregistruj sa
Zobrazit informácie o autoroviOdoslať súkromnú správu
Sťahuj z HELLSHARE neobmedzene bez premium účtu!
Zobraziť príspevky z predchádzajúcich:      
Odpovedať na tému Thank Post


 Prejdi na:   



Zobraziť nasledujúcu tému
Zobraziť predchádzajúcu tému
Nemôžete odosielať nové témy do tohto fóra
Nemôžete odpovedať na témy v tomto fóre
Nemôžete upravovať svoje príspevky v tomto fóre
Nemôžete mazať svoje príspevky v tomto fóre
Nemôžete hlasovať v tomto fóre


Upozornenie: Žiadny zo zobrazovaných súborov sa nenachádza na tomto serveri. Autor stránky neberie žiadnu zodpovednost za príspevky odoslané uživatelmi. Nepoužívajte tieto stránky k distribúcii alebo k downloadu akýchkolvek materiálov, ku ktorým nemáte legálne opravnenie alebo licenciu. Všetky príspevky sem vkladáte na vlastnú zodpovednost. Autor stránky odmieta akúkolvek zodpovednost za prípadne porušovanie zákonov. Kopírovanie obsahu bez písomného súhlasu autora stránky je trestné.
V prípade, že ste narazili na nelegálny obsah prosím okamžite kontaktujte administrátora portálu.



Powered by phpBB © 2005 phpBB Group :: Časy uvádzané v GMT + 1 hodina
[ Nacítanie: 0.2s ] :: [ 21 Queries ] :: [ 21,373 stránok za dnes ] :: [ Dnes DB: 401,685 ] :: [ Max DB: 13,059,503 ]