Obsah fóra

lamky.net banner
Registrácia  •  Prihlásenie
 Grand Tour, The / EN Zobraziť nasledujúcu tému
Zobraziť predchádzajúcu tému

Pridat tému do záložiek
Odpovedať na tému Thank Post
Autor Správa
turbiatko   
Pokročilý


Založený: 25.10.2010
Príspevky: 145
SMS donate: 0

PríspevokZaslal: Pi Nov 18, 2016 19:15 pm Odpovedať s citátomCelkom dole

The Grand Tour 2016

Image

CSFD:

Linky sa zobrazia až po prihlásení. Prihlás sa
Chces vidieť plný obsah a nie si zaregistrovaný? Zaregistruj sa


INFO:
Milovnici povodneho TOP GEARU maju dovod na radost. Povodna trojica hlavnych hrdinov Jeremy Clarkson, Richard Hammond a James May prichadzaju v novom formate The Grand Tour pod zastitou Amazonu.

Kvalita prvej casti:
Video
Rozlíšenie: 720x406
Kodek: AVC
Počet snímok za sekundu: 23.976

Audio
Kodek: AAC LC
Kanály: 2

Zatial iba ENG jazyk


Image


Linky sa zobrazia až po prihlásení. Prihlás sa
Chces vidieť plný obsah a nie si zaregistrovaný? Zaregistruj sa
Zobrazit informácie o autoroviOdoslať súkromnú správuZobraziť autorove WWW stránky
nellio   
Nováčik


Založený: 22.11.2005
Príspevky: 30
SMS donate: 0
Bydlisko: Rimavská Sobota

PríspevokZaslal: Ne Dec 04, 2016 15:22 pm Odpovedať s citátomCelkom dole

The Grand Tour

Image


12. časť


Linky sa zobrazia až po prihlásení. Prihlás sa
Chces vidieť plný obsah a nie si zaregistrovaný? Zaregistruj sa



13. časť


Linky sa zobrazia až po prihlásení. Prihlás sa
Chces vidieť plný obsah a nie si zaregistrovaný? Zaregistruj sa
Zobrazit informácie o autoroviOdoslať súkromnú správuICQ
freesby89   
Warezák


Založený: 30.05.2014
Príspevky: 947
SMS donate: 0

PríspevokZaslal: Ut Nov 28, 2017 11:44 am Odpovedať s citátomCelkom dole

Image

The Grand Tour (TV pořad) (2016-2017) EN + CZ Tiluky


Linky sa zobrazia až po prihlásení. Prihlás sa
Chces vidieť plný obsah a nie si zaregistrovaný? Zaregistruj sa



Oblíbené trio je zpět. Jeremy Clarkson, Richard Hammond a James May se vrací v novém seriálu The Grand Tour, který je nepřímým pokračováním jejich posledního působení v Top Gearu. Naše trojka se vydává na cestu po celém světě, kde testuje různá auta, plní úkoly a především si užívají život jako "motoristi ve středním věku", kdy každou epizodu uvádí v jejich mobilním stanu.

JAZYK| En
TITULKY| En / Cz

VIDEO| MPEG4 Video (H264) 1280x720 23.976fps

AUDIO| DD+ 48000Hz 6ch 640kbps

ROK| 2016-2017
DÉLKA| 13x ~60min
ŽÁNR| Dokumentární / Sportovní




The.Grand.Tour.S01.720p.WEBRip.X264-DEFLATE.mkv + Cz Titulky

Epizódy:

E01 - The Holy Trinity (18.11.2016)
E02 - Operation Desert Stumble (25.11.2016)
E03 - Opera, Arts and Donuts (02.12.2016)
E04 - Enviro-mental (09.12.2016)
E05 - Moroccan Roll (16.12.2016)
E06 - Happy Finnish Christmas (23.12.2016)
E07 - The Beach (Buggy) Boys: Part 1 (30.12.2016)
E08 - The Beach (Buggy) Boys: Part 2 (31.12.2016)
E09 - Berks to the Future (06.01.2017)
E10 - Dumb Fight at the O.K. Coral (13.01.2017)
E11 - Italian Lessons (20.01.2017)
E12 - (censored) to (censored) (27.01.2017)
E13 - Past v Future (03.02.2017)


General
Complete name: The.Grand.Tour.S01E13.720p.WEBRip.X264-DEFLATE.mkv
Format: Matroska
Format version: Version 4 / Version 2
File size: 3.10 GiB
Duration: 1h 1mn
Overall bit rate: 7 154 Kbps

Encoded date: UTC 2017-02-03 00:01:13
Writing application: mkvmerge v9.3.1 ( 'Mask Machine' ) 64bit
Writing library: libebml v1.3.4 + libmatroska v1.4.5

Video
ID: 1
Format: AVC
Format/Info: Advanced Video Codec
Format profile: High@L4.1
Format settings, CABAC: Yes
Format settings, ReFrames: 9 frames
Codec ID: V_MPEG4/ISO/AVC
Duration: 1h 1mn
Bit rate: 6 372 Kbps
Width: 1 280 pixels
Height: 720 pixels

Display aspect ratio: 16:9
Frame rate mode: Constant
Frame rate: 23.976 fps
Color space: YUV
Chroma subsampling: 4:2:0
Bit depth: 8 bits
Scan type: Progressive

Language: English
Default: Yes
Forced: No

Audio
ID: 2
Format: E-AC-3
Format/Info: Audio Coding 3
Format settings, Endianness: Big
Codec ID: A_EAC3
Duration: 1h 1mn
Bit rate mode: Constant
Bit rate: 640 Kbps
Channel(s): 6 channels
Channel positions: Front: L C R, Side: L R, LFE
Sampling rate: 48.0 KHz
Compression mode: Lossy
Stream size: 284 MiB (9%)
Language: English
Default: Yes
Forced: No

Text #1
ID: 3
Format: UTF-8
Codec ID: S_TEXT/UTF8
Codec ID/Info: UTF-8 Plain Text
Title: English
Language: English
Default: No
Forced: No

Text #2
ID: 4
Format: UTF-8
Codec ID: S_TEXT/UTF8
Codec ID/Info: UTF-8 Plain Text
Title: English (SDH)
Language: English
Default: No
Forced: No



Linky sa zobrazia až po prihlásení. Prihlás sa
Chces vidieť plný obsah a nie si zaregistrovaný? Zaregistruj sa

2 Séria:
Complete name: The.Grand.Tour.S02E02.720p.WEB.h264-SKGTV.mkv
Epizódy:

1. Past, Present or Future (Past, Present or Future)
2. The Falls Guys (The Falls Guys)
3. Bah humbug-atti (Bah humbug-atti)
4. Unscripted (Unscripted)
5. Up, Down and Round the Farm (Up, Down and Round the Farm)
6. Jaaaaaaaags (Jaaaaaaaags)
7. It's a Gas, Gas, Gas (It's a Gas, Gas, Gas)
8. Blasts from the Past (Blasts from the Past)
9. Breaking, badly (Breaking, badly) - tento diel este dodam zajtra by sa mala odvisielat Smile

Info:
General
Complete name: The.Grand.Tour.S02E02.720p.WEB.h264-SKGTV.mkv
Format: Matroska
Format version: Version 4 / Version 2
File size: 2.34 GiB
Duration: 1h 10mn
Overall bit rate mode: Variable
Overall bit rate: 4 781 Kbps
Encoded date: UTC 2017-12-14 23:02:16
Writing application: mkvmerge v11.0.0 ( 'Alive' ) 64bit
Writing library: libebml v1.3.4 + libmatroska v1.4.5
DURATION: 01:08:40.320000000
NUMBER_OF_FRAMES: 1391
NUMBER_OF_BYTES: 50895
_STATISTICS_WRITING_APP: mkvmerge v11.0.0 ( 'Alive' ) 64bit
_STATISTICS_WRITING_DATE_UTC: 2017-12-14 23:02:16
_STATISTICS_TAGS: BPS DURATION NUMBER_OF_FRAMES NUMBER_OF_BYTES

Video
ID: 1
Format: AVC
Format/Info: Advanced Video Codec
Format profile: High@L3.1
Format settings, CABAC: Yes
Format settings, ReFrames: 5 frames
Codec ID: V_MPEG4/ISO/AVC
Duration: 1h 10mn
Bit rate mode: Variable
Bit rate: 4 045 Kbps
Maximum bit rate: 4 500 Kbps
Width: 1 280 pixels
Height: 720 pixels
Display aspect ratio: 16:9
Frame rate mode: Constant
Frame rate: 25.000 fps
Color space: YUV
Chroma subsampling: 4:2:0
Bit depth: 8 bits
Scan type: Progressive
Bits/(Pixel*Frame): 0.176
Stream size: 1.98 GiB (85%)
Default: Yes
Forced: No
Color range: Limited
Color primaries: BT.709
Transfer characteristics: BT.709
Matrix coefficients: BT.709

Audio
ID: 2
Format: E-AC-3
Format/Info: Audio Coding 3
Format settings, Endianness: Big
Codec ID: A_EAC3
Duration: 1h 10mn
Bit rate mode: Constant
Bit rate: 640 Kbps
Channel(s): 6 channels
Channel positions: Front: L C R, Side: L R, LFE
Sampling rate: 48.0 KHz
Compression mode: Lossy
Stream size: 321 MiB (13%)
Default: Yes
Forced: No

Text
ID: 3
Format: UTF-8
Codec ID: S_TEXT/UTF8
Codec ID/Info: UTF-8 Plain Text
Title : English [CC]
Default: No
Forced: No

Download:

Linky sa zobrazia až po prihlásení. Prihlás sa
Chces vidieť plný obsah a nie si zaregistrovaný? Zaregistruj sa
Zobrazit informácie o autoroviOdoslať súkromnú správu
freesby89   
Warezák


Založený: 30.05.2014
Príspevky: 947
SMS donate: 0

PríspevokZaslal: Št Feb 01, 2018 20:22 pm Odpovedať s citátomCelkom dole

doplnena 2 seria
Zobrazit informácie o autoroviOdoslať súkromnú správu
Sťahuj z HELLSHARE neobmedzene bez premium účtu!
Zobraziť príspevky z predchádzajúcich:      
Odpovedať na tému Thank Post


 Prejdi na:   



Zobraziť nasledujúcu tému
Zobraziť predchádzajúcu tému
Nemôžete odosielať nové témy do tohto fóra
Nemôžete odpovedať na témy v tomto fóre
Nemôžete upravovať svoje príspevky v tomto fóre
Nemôžete mazať svoje príspevky v tomto fóre
Nemôžete hlasovať v tomto fóre


Upozornenie: Žiadny zo zobrazovaných súborov sa nenachádza na tomto serveri. Autor stránky neberie žiadnu zodpovednost za príspevky odoslané uživatelmi. Nepoužívajte tieto stránky k distribúcii alebo k downloadu akýchkolvek materiálov, ku ktorým nemáte legálne opravnenie alebo licenciu. Všetky príspevky sem vkladáte na vlastnú zodpovednost. Autor stránky odmieta akúkolvek zodpovednost za prípadne porušovanie zákonov. Kopírovanie obsahu bez písomného súhlasu autora stránky je trestné.
V prípade, že ste narazili na nelegálny obsah prosím okamžite kontaktujte administrátora portálu.



Powered by phpBB © 2005 phpBB Group :: Časy uvádzané v GMT + 1 hodina
[ Nacítanie: 0.2s ] :: [ 23 Queries ] :: [ 56,573 stránok za dnes ] :: [ Dnes DB: 984,117 ] :: [ Max DB: 13,059,503 ]