Obsah fóra

lamky.net banner
Registrácia  •  Prihlásenie
 Zabiják a bodyguard / The Hitman's Bodyguard (2017) Zobraziť nasledujúcu tému
Zobraziť predchádzajúcu tému

Pridat tému do záložiek
Odpovedať na tému Thank Post
Autor Správa
jankonosko   
Uploader


Založený: 29.11.2009
Príspevky: 1404
SMS donate: 0

PríspevokZaslal: St Jan 03, 2018 15:05 pm Odpovedať s citátomCelkom dole

Image

The Hitman's Bodyguard
BRRip, CZ


Linky sa zobrazia až po prihlásení. Prihlás sa
Chces vidieť plný obsah a nie si zaregistrovaný? Zaregistruj sa


Akční / Komedie
USA, 2017


Image


Linky sa zobrazia až po prihlásení. Prihlás sa
Chces vidieť plný obsah a nie si zaregistrovaný? Zaregistruj sa



Linky sa zobrazia až po prihlásení. Prihlás sa
Chces vidieť plný obsah a nie si zaregistrovaný? Zaregistruj sa



Linky sa zobrazia až po prihlásení. Prihlás sa
Chces vidieť plný obsah a nie si zaregistrovaný? Zaregistruj sa


..................................................................................


Linky sa zobrazia až po prihlásení. Prihlás sa
Chces vidieť plný obsah a nie si zaregistrovaný? Zaregistruj sa



Linky sa zobrazia až po prihlásení. Prihlás sa
Chces vidieť plný obsah a nie si zaregistrovaný? Zaregistruj sa


.................................................................................


Linky sa zobrazia až po prihlásení. Prihlás sa
Chces vidieť plný obsah a nie si zaregistrovaný? Zaregistruj sa



Linky sa zobrazia až po prihlásení. Prihlás sa
Chces vidieť plný obsah a nie si zaregistrovaný? Zaregistruj sa

forced

Linky sa zobrazia až po prihlásení. Prihlás sa
Chces vidieť plný obsah a nie si zaregistrovaný? Zaregistruj sa
Zobrazit informácie o autoroviOdoslať súkromnú správu
Podakovania: klatov, Mclainnn, miko2310, katiu, v214, Olap, cikyno, pitren pitrenko, balu1, djmike, Mayo117, sú vdační za túto tému.
desolation   
Warezák


Založený: 19.04.2014
Príspevky: 1741
SMS donate: 0

PríspevokZaslal: St Jan 03, 2018 15:11 pm Odpovedať s citátomCelkom dole

Zabiják & bodyguard / The.Hitmans.Bodyguard / 2017


The.Hitmans.Bodyguard.2017.BRRip.XViD.MP3.CZ
The.Hitmans.Bodyguard.2017.480p.BRRip.XViD.AC3.CZ
The.Hitmans.Bodyguard.2017.720p.BRRip.XViD.AC3.CZ


Audio: CZ (2.0)
Subtitles: CZ(f)

Image


Linky sa zobrazia až po prihlásení. Prihlás sa
Chces vidieť plný obsah a nie si zaregistrovaný? Zaregistruj sa


The.Hitmans.Bodyguard.2017.BRRip.XViD.MP3.CZ

Linky sa zobrazia až po prihlásení. Prihlás sa
Chces vidieť plný obsah a nie si zaregistrovaný? Zaregistruj sa



Linky sa zobrazia až po prihlásení. Prihlás sa
Chces vidieť plný obsah a nie si zaregistrovaný? Zaregistruj sa




********



The.Hitmans.Bodyguard.2017.480p.BRRip.XViD.AC3.CZ

Linky sa zobrazia až po prihlásení. Prihlás sa
Chces vidieť plný obsah a nie si zaregistrovaný? Zaregistruj sa



Linky sa zobrazia až po prihlásení. Prihlás sa
Chces vidieť plný obsah a nie si zaregistrovaný? Zaregistruj sa




********



The.Hitmans.Bodyguard.2017.720p.BRRip.XViD.AC3.CZ

Linky sa zobrazia až po prihlásení. Prihlás sa
Chces vidieť plný obsah a nie si zaregistrovaný? Zaregistruj sa



Linky sa zobrazia až po prihlásení. Prihlás sa
Chces vidieť plný obsah a nie si zaregistrovaný? Zaregistruj sa


FORCED

Linky sa zobrazia až po prihlásení. Prihlás sa
Chces vidieť plný obsah a nie si zaregistrovaný? Zaregistruj sa
Zobrazit informácie o autoroviOdoslať súkromnú správu
kalvero   
Nováčik


Založený: 24.06.2012
Príspevky: 24
SMS donate: 0

PríspevokZaslal: St Jan 03, 2018 17:34 pm Odpovedať s citátomCelkom dole

The Hitman's Bodyguard 2017

Image

CSFD:


Linky sa zobrazia až po prihlásení. Prihlás sa
Chces vidieť plný obsah a nie si zaregistrovaný? Zaregistruj sa


MEDIAINFO


    Format : Matroska
    File size : 1.10 GiB
    Duration : 1 h 57 min
    Overall bit rate : 1 339 kb/s

    Video
    ID : 1
    Format : AVC
    Format/Info : Advanced Video Codec
    Format profile : High@L4.1
    Format settings : CABAC / 16 Ref Frames
    Format settings, CABAC : Yes
    Format settings, ReFrames : 16 frames
    Codec ID : V_MPEG4/ISO/AVC
    Duration : 1 h 57 min
    Bit rate : 1 146 kb/s
    Width : 720 pixels
    Height : 302 pixels

    Audio
    ID : 2
    Format : AC-3
    Format/Info : Audio Coding 3
    Codec ID : A_AC3
    Duration : 1 h 57 min
    Bit rate mode : Constant
    Bit rate : 192 kb/s
    Channel(s) : 2 channels
    Channel positions : Front: L R
    Sampling rate : 48.0 kHz
    Frame rate : 31.250 FPS (1536 SPF)
    Bit depth : 16 bits
    Compression mode : Lossy
    Stream size : 162 MiB (14%)
    Language : Czech
    Service kind : Complete Main
    Default : Yes
    Forced : No

    Text #1
    ID : 3
    Format : UTF-8
    Codec ID : S_TEXT/UTF8
    Codec ID/Info : UTF-8 Plain Text
    Duration : 1 h 55 min
    Bit rate : 2 b/s
    Count of elements : 73
    Stream size : 1.88 KiB (0%)
    Title : forced
    Language : Czech
    Default : Yes
    Forced : Yes

    Text #2
    ID : 4
    Format : ASS
    Codec ID : S_TEXT/ASS
    Codec ID/Info : Advanced Sub Station Alpha
    Duration : 1 h 55 min
    Bit rate : 3 b/s
    Count of elements : 73
    Compression mode : Lossless
    Stream size : 3.37 KiB (0%)
    Title : forced ASS
    Language : Czech
    Default : No
    Forced : Yes

Image

Image

Linky sa zobrazia až po prihlásení. Prihlás sa
Chces vidieť plný obsah a nie si zaregistrovaný? Zaregistruj sa





MEDIAINFO


    Format : Matroska
    File size : 3.11 GiB
    Duration : 1 h 57 min
    Overall bit rate : 3 772 kb/s

    Video
    ID : 1
    Format : AVC
    Format/Info : Advanced Video Codec
    Format profile : High@L4.1
    Format settings : CABAC / 12 Ref Frames
    Format settings, CABAC : Yes
    Format settings, ReFrames : 12 frames
    Codec ID : V_MPEG4/ISO/AVC
    Duration : 1 h 57 min
    Bit rate : 2 830 kb/s
    Width : 1 280 pixels
    Height : 536 pixels

    Audio #1
    ID : 2
    Format : AC-3
    Format/Info : Audio Coding 3
    Codec ID : A_AC3
    Duration : 1 h 57 min
    Bit rate mode : Constant
    Bit rate : 192 kb/s
    Channel(s) : 2 channels
    Channel positions : Front: L R
    Sampling rate : 48.0 kHz
    Frame rate : 31.250 FPS (1536 SPF)
    Bit depth : 16 bits
    Compression mode : Lossy
    Stream size : 162 MiB (5%)
    Language : Czech
    Service kind : Complete Main
    Default : Yes
    Forced : No

    Audio #2
    ID : 3
    Format : AC-3
    Format/Info : Audio Coding 3
    Codec ID : A_AC3
    Duration : 1 h 57 min
    Bit rate mode : Constant
    Bit rate : 640 kb/s
    Channel(s) : 6 channels
    Channel positions : Front: L C R, Side: L R, LFE
    Sampling rate : 48.0 kHz
    Frame rate : 31.250 FPS (1536 SPF)
    Bit depth : 16 bits
    Compression mode : Lossy
    Stream size : 540 MiB (17%)
    Language : English
    Service kind : Complete Main
    Default : No
    Forced : No

    Audio #3
    ID : 4
    Format : AAC
    Format/Info : Advanced Audio Codec
    Format profile : LC
    Codec ID : A_AAC-2
    Duration : 1 h 57 min
    Bit rate : 107 kb/s
    Channel(s) : 2 channels
    Channel positions : Front: L R
    Sampling rate : 48.0 kHz
    Frame rate : 46.875 FPS (1024 SPF)
    Compression mode : Lossy
    Delay relative to video : 9 ms
    Stream size : 90.5 MiB (3%)
    Title : Commentary
    Language : English
    Default : No
    Forced : No

    Text #1
    ID : 5
    Format : UTF-8
    Codec ID : S_TEXT/UTF8
    Codec ID/Info : UTF-8 Plain Text
    Duration : 1 h 55 min
    Bit rate : 2 b/s
    Count of elements : 73
    Stream size : 1.88 KiB (0%)
    Title : forced
    Language : Czech
    Default : Yes
    Forced : Yes

    Text #2
    ID : 6
    Format : UTF-8
    Codec ID : S_TEXT/UTF8
    Codec ID/Info : UTF-8 Plain Text
    Duration : 1 h 57 min
    Bit rate : 52 b/s
    Count of elements : 1169
    Stream size : 45.3 KiB (0%)
    Title : SRT
    Language : Czech
    Default : No
    Forced : No

    Text #3
    ID : 7
    Format : UTF-8
    Codec ID : S_TEXT/UTF8
    Codec ID/Info : UTF-8 Plain Text
    Duration : 1 h 57 min
    Bit rate : 44 b/s
    Count of elements : 1205
    Stream size : 38.2 KiB (0%)
    Title : SRT
    Language : Slovak
    Default : No
    Forced : No

    Text #4
    ID : 8
    Format : ASS
    Codec ID : S_TEXT/ASS
    Codec ID/Info : Advanced Sub Station Alpha
    Duration : 1 h 55 min
    Bit rate : 3 b/s
    Count of elements : 73
    Compression mode : Lossless
    Stream size : 3.37 KiB (0%)
    Title : forced ASS
    Language : Czech
    Default : No
    Forced : Yes

    Text #5
    ID : 9
    Format : ASS
    Codec ID : S_TEXT/ASS
    Codec ID/Info : Advanced Sub Station Alpha
    Duration : 1 h 57 min
    Bit rate : 81 b/s
    Count of elements : 1169
    Compression mode : Lossless
    Stream size : 70.5 KiB (0%)
    Title : ASS
    Language : Czech
    Default : No
    Forced : No

    Text #6
    ID : 10
    Format : ASS
    Codec ID : S_TEXT/ASS
    Codec ID/Info : Advanced Sub Station Alpha
    Duration : 1 h 57 min
    Bit rate : 74 b/s
    Count of elements : 1205
    Compression mode : Lossless
    Stream size : 64.5 KiB (0%)
    Title : ASS
    Language : Slovak
    Default : No
    Forced : No

Image

Image

Linky sa zobrazia až po prihlásení. Prihlás sa
Chces vidieť plný obsah a nie si zaregistrovaný? Zaregistruj sa
Zobrazit informácie o autoroviOdoslať súkromnú správu
gulio   
Warezák


Založený: 01.08.2010
Príspevky: 674
SMS donate: 0

PríspevokZaslal: St Jan 03, 2018 18:24 pm Odpovedať s citátomCelkom dole

Image




Zabiják a bodyguard / The Hitman's Bodyguard (2017)


BRRip/CZ


Image The Hitman's Bodyguard
Image Zabiják a bodyguard



Akční / Komedie

USA, 2017, 118 min
Režie: Patrick Hughes
Scénář: Tom O'Connor
Kamera: Jules O'Loughlin
Hudba: Atli Örvarsson
Hrají: Ryan Reynolds, Samuel L. Jackson, Gary Oldman, Elodie Yung, Salma Hayek,
Richard Price, Richard E. Grant, Rod Hallett, Jurij Kolokolnikov, Noortje Herlaar,
Georgie Glen, Barry Atsma, Kirsty Mitchell, Sam Hazeldine, Joaquim de Almeida,
Alan McKenna, Joséphine de La Baume, Ori Pfeffer, Justin Pearson, Owen Davis,
Abbey Hoes, Nicolas de Pruyssenaere, Mounir Margoum, Chris Wilson, Tsuwayuki Saotome,
Tine Joustra





Linky sa zobrazia až po prihlásení. Prihlás sa
Chces vidieť plný obsah a nie si zaregistrovaný? Zaregistruj sa




Nejlepší bodyguard na světě dostane nového klienta, nájemného vraha, který musí svědčit u Mezinárodního soudního dvora.
Aby se včas dostavili k soudnímu řízení, musí oba zapomenout na to, že jsou tak trochu jiní a že si možná až příliš lezou na nervy.



SCREEN

Image


MediaInfo:

General : C:\Film avi\AVI\Zabiják-a-Bodyguard-BRRip-Cz-2017.mkv
Format : Matroska at 6 215 kb/s
Length : 5,14 GiB for 1 h 58 min 20 sek. 0 ms

Video #0 : AVC at 6 000 kb/s
Aspect : 1280 x 536 (2.388) at 23.976 fps

Audio #0 : AC-3 at 224 kb/s
Infos : 2 kanály, 48,0 kHz
Language : cs

Text #0 : UTF-8
Language : cs



Image

Linky sa zobrazia až po prihlásení. Prihlás sa
Chces vidieť plný obsah a nie si zaregistrovaný? Zaregistruj sa


Image

Linky sa zobrazia až po prihlásení. Prihlás sa
Chces vidieť plný obsah a nie si zaregistrovaný? Zaregistruj sa



Citácia:
Heslo je : marat


Keď vám winrar pri rozbalovaní ukáže nesuhlasí crc tak najprv zaškrtnite položku
,,Ponechať poškodené subory"a keď to nepomože tak použite zaznam na opravu,dat je tam 5%.
(v hornej lište Nástroje - Opraviť archív)V tomto prípade WinRar vytvorí opravený súbor,
ktorý začína slovom "fixed".Tento výraz je ale potrebné zmazať po oprave a rozbalit vo win rar.
Alebo použite 7zip ten to rozbali bez problémov!!!
Zobrazit informácie o autoroviOdoslať súkromnú správu
browing3006   
Warezák


Založený: 14.05.2014
Príspevky: 1156
SMS donate: 0

PríspevokZaslal: St Jan 03, 2018 20:25 pm Odpovedať s citátomCelkom dole

Zabiják a bodyguard / The Hitman's Bodyguard (2017)

CSFD:


Linky sa zobrazia až po prihlásení. Prihlás sa
Chces vidieť plný obsah a nie si zaregistrovaný? Zaregistruj sa


Image

The.Hitmans.Bodyguard.2017.BDRip.x264.AC3.CZ
The.Hitmans.Bodyguard.2017.480p.BDRip.XviD.AC3.CZ
The.Hitmans.Bodyguard.2017.480p.BDRip.XviD.AC3.CZ
The.Hitmans.Bodyguard.2017.720p.BDRip.XviD.AC3.CZ


The.Hitmans.Bodyguard.2017.BDRip.x264.AC3.CZ
Jazyk: Czech
Subtitles: Czech forced

iNFO


Linky sa zobrazia až po prihlásení. Prihlás sa
Chces vidieť plný obsah a nie si zaregistrovaný? Zaregistruj sa


Image

Linky sa zobrazia až po prihlásení. Prihlás sa
Chces vidieť plný obsah a nie si zaregistrovaný? Zaregistruj sa

The.Hitmans.Bodyguard.2017.480.BDRip.XviD.AC3.CZ

iNFO


Linky sa zobrazia až po prihlásení. Prihlás sa
Chces vidieť plný obsah a nie si zaregistrovaný? Zaregistruj sa


Image

Linky sa zobrazia až po prihlásení. Prihlás sa
Chces vidieť plný obsah a nie si zaregistrovaný? Zaregistruj sa

The.Hitmans.Bodyguard.2017.480.BDRip.XviD.AC3.CZ

iNFO


Linky sa zobrazia až po prihlásení. Prihlás sa
Chces vidieť plný obsah a nie si zaregistrovaný? Zaregistruj sa


Image

Linky sa zobrazia až po prihlásení. Prihlás sa
Chces vidieť plný obsah a nie si zaregistrovaný? Zaregistruj sa

The.Hitmans.Bodyguard.2017.720p.BDRip.XviD.AC3.CZ

iNFO


Linky sa zobrazia až po prihlásení. Prihlás sa
Chces vidieť plný obsah a nie si zaregistrovaný? Zaregistruj sa


Image

Linky sa zobrazia až po prihlásení. Prihlás sa
Chces vidieť plný obsah a nie si zaregistrovaný? Zaregistruj sa

Subs: Czech forced

Linky sa zobrazia až po prihlásení. Prihlás sa
Chces vidieť plný obsah a nie si zaregistrovaný? Zaregistruj sa
Zobrazit informácie o autoroviOdoslať súkromnú správu
fajfo   
Warezák


Založený: 07.12.2017
Príspevky: 264
SMS donate: 0

PríspevokZaslal: St Jan 03, 2018 22:31 pm Odpovedať s citátomCelkom dole

Zabiják a bodyguard / The Hitman's Bodyguard CZ

Image

Image


Linky sa zobrazia až po prihlásení. Prihlás sa
Chces vidieť plný obsah a nie si zaregistrovaný? Zaregistruj sa


Kvalita


Linky sa zobrazia až po prihlásení. Prihlás sa
Chces vidieť plný obsah a nie si zaregistrovaný? Zaregistruj sa


DOWNLOAD

Image

Linky sa zobrazia až po prihlásení. Prihlás sa
Chces vidieť plný obsah a nie si zaregistrovaný? Zaregistruj sa
Zobrazit informácie o autoroviOdoslať súkromnú správu
freesby89   
Warezák


Založený: 30.05.2014
Príspevky: 615
SMS donate: 0

PríspevokZaslal: Št Jan 04, 2018 2:10 am Odpovedať s citátomCelkom dole

The.Hitmans.Bodyguard.2017.CZ.BRRip.x264.DD2.0-BST.mkv + CZ Forced titulky



Cover:


Image

Info:
Jazyk: Český
Titulky: CZ


Csfd:

Linky sa zobrazia až po prihlásení. Prihlás sa
Chces vidieť plný obsah a nie si zaregistrovaný? Zaregistruj sa

Info:
Unique ID: 229498356864611055878864966850944111096 (0xACA7C698AFEE5128B6AF11AAD55B11F8)
Celý název a cesta: F:\Zabiják & bodyguard CZ\The.Hitmans.Bodyguard.2017.CZ.BRRip.x264.DD2.0-BST.mkv
Formát: Matroska
Format version: Version 4 / Version 2
Velikost souboru: 1.40 GiB
Duration: 1h 58mn
Overall bit rate: 1 700 Kbps
Název filmu: www.besttracker.cz
Encoded date: UTC 2018-01-03 11:57:46
Použitý software: mkvmerge v18.0.0 ('Apricity'Wink 64-bit
Enkódoval: libebml v1.3.5 + libmatroska v1.4.8
DURATION: 01:58:09.599000000
NUMBER_OF_FRAMES: 75
NUMBER_OF_BYTES: 1983
_STATISTICS_WRITING_APP: mkvmerge v18.0.0 ('Apricity'Wink 64-bit
_STATISTICS_WRITING_DATE_UTC: 2018-01-03 11:57:46
_STATISTICS_TAGS: BPS DURATION NUMBER_OF_FRAMES NUMBER_OF_BYTES

Video
ID: 1
Formát: AVC
Formát/Info: Advanced Video Codec
Format profile: High@L4.1
Format settings, CABAC: Ano
Format settings, ReFrames: 16 frames
Codec ID: V_MPEG4/ISO/AVC
Duration: 1h 58mn
Bit rate: 1 474 Kbps
Šířka: 704pixely
Výška: 296pixely
Display aspect ratio: 2.40:1
Frame rate mode: Constant
Frame rate: 23.976 fps
Color space: YUV
Chroma subsampling: 4:2:0
Bit depth: 8 bits
Scan type: Progressive
Bits/(Pixel*Frame): 0.295
Stream size: 1.19 GiB (85%)
Titul: The.Hitmans.Bodyguard.2017.BRRip.x264-BST
Enkódoval: x264 core 144 r2525 40bb568
Nastavení enkoderu: cabac=1 / ref=16 / deblock=1:-3:-3 / analyse=0x3:0x113 / me=umh / subme=7 / psy=0 / mixed_ref=1 / me_range=16 / chroma_me=1 / trellis=2 / 8x8dct=1 / cqm=0 / deadzone=21,11 / fast_pskip=1 / chroma_qp_offset=0 / threads=12 / lookahead_threads=2 / sliced_threads=0 / nr=0 / decimate=0 / interlaced=0 / bluray_compat=0 / constrained_intra=0 / bframes=12 / b_pyramid=2 / b_adapt=2 / b_bias=0 / direct=1 / weightb=1 / open_gop=0 / weightp=1 / keyint=240 / keyint_min=23 / scenecut=40 / intra_refresh=0 / rc_lookahead=40 / rc=2pass / mbtree=1 / bitrate=1474 / ratetol=1.0 / qcomp=0.60 / qpmin=0 / qpmax=69 / qpstep=4 / cplxblur=20.0 / qblur=0.5 / vbv_maxrate=62500 / vbv_bufsize=78125 / nal_hrd=none / filler=0 / ip_ratio=1.40 / aq=1:1.00
Jazyk: English
Default: Ano
Forced: Ano

Audio
ID: 2
Formát: AC-3
Formát/Info: Audio Coding 3
Mode extension: CM (complete main)
Format settings, Endianness: Big
Codec ID: A_AC3
Duration: 1h 58mn
Bit rate mode: Constant
Bit rate: 224 Kbps
Kanál(y): 2 kanály
Channel positions: Front: L R
Sampling rate: 48.0 KHz
Bit depth: 16 bits
Compression mode: Lossy
Stream size: 190 MiB (13%)
Jazyk: Czech
Default: Ano
Forced: Ano

Text
ID: 3
Formát: UTF-8
Codec ID: S_TEXT/UTF8
Codec ID/Info: UTF-8 Plain Text
Titul: Czech Forced
Jazyk: Czech
Default: Ano
Forced: Ano


Download:

Linky sa zobrazia až po prihlásení. Prihlás sa
Chces vidieť plný obsah a nie si zaregistrovaný? Zaregistruj sa
Zobrazit informácie o autoroviOdoslať súkromnú správu
sniper00   
Warezák


Založený: 15.08.2009
Príspevky: 274
SMS donate: 0

PríspevokZaslal: Št Jan 04, 2018 8:15 am Odpovedať s citátomCelkom dole

Image


Image

Linky sa zobrazia až po prihlásení. Prihlás sa
Chces vidieť plný obsah a nie si zaregistrovaný? Zaregistruj sa


Image
D:\Zabiják & bodyguard CZ\The.Hitmans.Bodyguard.2017.CZ.BRRip.x264.DD2.0-BST.mkv
General
Unique ID : 229498356864611055878864966850944111096 (0xACA7C698AFEE5128B6AF11AAD55B11F8)
Complete name : D:\Zabiják & bodyguard CZ\The.Hitmans.Bodyguard.2017.CZ.BRRip.x264.DD2.0-BST.mkv
Format : Matroska
Format version : Version 4 / Version 2
File size : 1.40 GiB
Duration : 1h 58mn
Overall bit rate : 1 700 Kbps
Movie name : www.besttracker.cz
Encoded date : UTC 2018-01-03 11:57:46
Writing application : mkvmerge v18.0.0 ('Apricity') 64-bit
Writing library : libebml v1.3.5 + libmatroska v1.4.8
DURATION : 01:58:09.599000000
NUMBER_OF_FRAMES : 75
NUMBER_OF_BYTES : 1983
_STATISTICS_WRITING_APP : mkvmerge v18.0.0 ('Apricity') 64-bit
_STATISTICS_WRITING_DATE_UTC : 2018-01-03 11:57:46
_STATISTICS_TAGS : BPS DURATION NUMBER_OF_FRAMES NUMBER_OF_BYTES
Video #1
ID : 1
Format : AVC
Format/Info : Advanced Video Codec
Format profile : High@L4.1
Format settings, CABAC : Yes
Format settings, ReFrames : 16 frames
Codec ID : V_MPEG4/ISO/AVC
Duration : 1h 58mn
Bit rate : 1 474 Kbps
Width : 704 pixels
Height : 296 pixels
Display aspect ratio : 2.40:1
Frame rate mode : Constant
Frame rate : 23.976 fps
Color space : YUV
Chroma subsampling : 4:2:0
Bit depth : 8 bits
Scan type : Progressive
Bits/(Pixel*Frame) : 0.295
Stream size : 1.19 GiB (85%)
Title : The.Hitmans.Bodyguard.2017.BRRip.x264-BST
Writing library : x264 core 144 r2525 40bb568
Encoding settings : cabac=1 / ref=16 / deblock=1:-3:-3 / analyse=0x3:0x113 / me=umh / subme=7 / psy=0 / mixed_ref=1 / me_range=16 / chroma_me=1 / trellis=2 / 8x8dct=1 / cqm=0 / deadzone=21,11 / fast_pskip=1 / chroma_qp_offset=0 / threads=12 / lookahead_threads=2 / sliced_threads=0 / nr=0 / decimate=0 / interlaced=0 / bluray_compat=0 / constrained_intra=0 / bframes=12 / b_pyramid=2 / b_adapt=2 / b_bias=0 / direct=1 / weightb=1 / open_gop=0 / weightp=1 / keyint=240 / keyint_min=23 / scenecut=40 / intra_refresh=0 / rc_lookahead=40 / rc=2pass / mbtree=1 / bitrate=1474 / ratetol=1.0 / qcomp=0.60 / qpmin=0 / qpmax=69 / qpstep=4 / cplxblur=20.0 / qblur=0.5 / vbv_maxrate=62500 / vbv_bufsize=78125 / nal_hrd=none / filler=0 / ip_ratio=1.40 / aq=1:1.00
Language : English
Default : Yes
Forced : Yes
Audio #2
ID : 2
Format : AC-3
Format/Info : Audio Coding 3
Mode extension : CM (complete main)
Format settings, Endianness : Big
Codec ID : A_AC3
Duration : 1h 58mn
Bit rate mode : Constant
Bit rate : 224 Kbps
Channel(s) : 2 channels
Channel positions : Front: L R
Sampling rate : 48.0 KHz
Bit depth : 16 bits
Compression mode : Lossy
Stream size : 190 MiB (13%)
Language : Czech
Default : Yes
Forced : Yes
Text #3
ID : 3
Format : UTF-8
Codec ID : S_TEXT/UTF8
Codec ID/Info : UTF-8 Plain Text
Title : Czech Forced
Language : Czech
Default : Yes
Forced : Yes
Jazyk : CZ Dabing



Image
Image

Linky sa zobrazia až po prihlásení. Prihlás sa
Chces vidieť plný obsah a nie si zaregistrovaný? Zaregistruj sa
Zobrazit informácie o autoroviOdoslať súkromnú správuICQ
GiGaByT   
Warezák


Založený: 22.08.2008
Príspevky: 379
SMS donate: 0
Bydlisko: P2P

PríspevokZaslal: So Jan 06, 2018 13:01 pm Odpovedať s citátomCelkom dole

NAME: Zabiják a bodyguard / The Hitman's Bodyguard (2017)
RELEASE: The.Hitmans.BodyGuard.2017.BRRip.XviD.AC3.CZ-PiRaTE

Image

RELEASE iNFO:

Linky sa zobrazia až po prihlásení. Prihlás sa
Chces vidieť plný obsah a nie si zaregistrovaný? Zaregistruj sa


Uloz.to

Linky sa zobrazia až po prihlásení. Prihlás sa
Chces vidieť plný obsah a nie si zaregistrovaný? Zaregistruj sa

Fastshare.cz

Linky sa zobrazia až po prihlásení. Prihlás sa
Chces vidieť plný obsah a nie si zaregistrovaný? Zaregistruj sa

Webshare.cz

Linky sa zobrazia až po prihlásení. Prihlás sa
Chces vidieť plný obsah a nie si zaregistrovaný? Zaregistruj sa

Bitster.cz

Linky sa zobrazia až po prihlásení. Prihlás sa
Chces vidieť plný obsah a nie si zaregistrovaný? Zaregistruj sa

Datoid.cz

Linky sa zobrazia až po prihlásení. Prihlás sa
Chces vidieť plný obsah a nie si zaregistrovaný? Zaregistruj sa

Edisk.cz

Linky sa zobrazia až po prihlásení. Prihlás sa
Chces vidieť plný obsah a nie si zaregistrovaný? Zaregistruj sa

Sdilej.cz

Linky sa zobrazia až po prihlásení. Prihlás sa
Chces vidieť plný obsah a nie si zaregistrovaný? Zaregistruj sa

Netshare.cz

Linky sa zobrazia až po prihlásení. Prihlás sa
Chces vidieť plný obsah a nie si zaregistrovaný? Zaregistruj sa

Userscloud.com

Linky sa zobrazia až po prihlásení. Prihlás sa
Chces vidieť plný obsah a nie si zaregistrovaný? Zaregistruj sa

Kbagi.com

Linky sa zobrazia až po prihlásení. Prihlás sa
Chces vidieť plný obsah a nie si zaregistrovaný? Zaregistruj sa

Sendit.cloud

Linky sa zobrazia až po prihlásení. Prihlás sa
Chces vidieť plný obsah a nie si zaregistrovaný? Zaregistruj sa

Filecloud.io

Linky sa zobrazia až po prihlásení. Prihlás sa
Chces vidieť plný obsah a nie si zaregistrovaný? Zaregistruj sa

Share-online.biz

Linky sa zobrazia až po prihlásení. Prihlás sa
Chces vidieť plný obsah a nie si zaregistrovaný? Zaregistruj sa

Uploaded.net

Linky sa zobrazia až po prihlásení. Prihlás sa
Chces vidieť plný obsah a nie si zaregistrovaný? Zaregistruj sa

Filefactory.com

Linky sa zobrazia až po prihlásení. Prihlás sa
Chces vidieť plný obsah a nie si zaregistrovaný? Zaregistruj sa

Katfile.com

Linky sa zobrazia až po prihlásení. Prihlás sa
Chces vidieť plný obsah a nie si zaregistrovaný? Zaregistruj sa

Datafile.com

Linky sa zobrazia až po prihlásení. Prihlás sa
Chces vidieť plný obsah a nie si zaregistrovaný? Zaregistruj sa

Alfafile.net

Linky sa zobrazia až po prihlásení. Prihlás sa
Chces vidieť plný obsah a nie si zaregistrovaný? Zaregistruj sa

Cloudyfiles.org

Linky sa zobrazia až po prihlásení. Prihlás sa
Chces vidieť plný obsah a nie si zaregistrovaný? Zaregistruj sa

Filebebo.com

Linky sa zobrazia až po prihlásení. Prihlás sa
Chces vidieť plný obsah a nie si zaregistrovaný? Zaregistruj sa

Tusfiles.com

Linky sa zobrazia až po prihlásení. Prihlás sa
Chces vidieť plný obsah a nie si zaregistrovaný? Zaregistruj sa

Megaup.net

Linky sa zobrazia až po prihlásení. Prihlás sa
Chces vidieť plný obsah a nie si zaregistrovaný? Zaregistruj sa

Uptobox.com

Linky sa zobrazia až po prihlásení. Prihlás sa
Chces vidieť plný obsah a nie si zaregistrovaný? Zaregistruj sa

Uplod.io

Linky sa zobrazia až po prihlásení. Prihlás sa
Chces vidieť plný obsah a nie si zaregistrovaný? Zaregistruj sa

Wayupload.com

Linky sa zobrazia až po prihlásení. Prihlás sa
Chces vidieť plný obsah a nie si zaregistrovaný? Zaregistruj sa

Chomikuj.pl

Linky sa zobrazia až po prihlásení. Prihlás sa
Chces vidieť plný obsah a nie si zaregistrovaný? Zaregistruj sa

Owndrives.com

Linky sa zobrazia až po prihlásení. Prihlás sa
Chces vidieť plný obsah a nie si zaregistrovaný? Zaregistruj sa

Dl.Free.fr

Linky sa zobrazia až po prihlásení. Prihlás sa
Chces vidieť plný obsah a nie si zaregistrovaný? Zaregistruj sa

Turbobit.net

Linky sa zobrazia až po prihlásení. Prihlás sa
Chces vidieť plný obsah a nie si zaregistrovaný? Zaregistruj sa


PASSWORD: No!!

--enjoy GiGaByT.of.unique.crew.uploaders uploads--

NOTES:

Linky sa zobrazia až po prihlásení. Prihlás sa
Chces vidieť plný obsah a nie si zaregistrovaný? Zaregistruj sa
Zobrazit informácie o autoroviOdoslať súkromnú správu
desolation   
Warezák


Založený: 19.04.2014
Príspevky: 1741
SMS donate: 0

PríspevokZaslal: So Jan 20, 2018 14:45 pm Odpovedať s citátomCelkom dole

Zabiják & bodyguard / The Hitmans Bodyguard / 2017


The.Hitmans.Bodyguard.2017.480p.BRRip.XViD.5.1.CZ
The.Hitmans.Bodyguard.2017.720p.BRRip.XViD.5.1.CZ


Audio: CZ (5.1)
Subtitles: CZ(f)

Image


Linky sa zobrazia až po prihlásení. Prihlás sa
Chces vidieť plný obsah a nie si zaregistrovaný? Zaregistruj sa


The.Hitmans.Bodyguard.2017.480p.BRRip.XViD.5.1.CZ

Linky sa zobrazia až po prihlásení. Prihlás sa
Chces vidieť plný obsah a nie si zaregistrovaný? Zaregistruj sa



Linky sa zobrazia až po prihlásení. Prihlás sa
Chces vidieť plný obsah a nie si zaregistrovaný? Zaregistruj sa




********



The.Hitmans.Bodyguard.2017.720p.BRRip.XViD.5.1.CZ

Linky sa zobrazia až po prihlásení. Prihlás sa
Chces vidieť plný obsah a nie si zaregistrovaný? Zaregistruj sa



Linky sa zobrazia až po prihlásení. Prihlás sa
Chces vidieť plný obsah a nie si zaregistrovaný? Zaregistruj sa


FORCED

Linky sa zobrazia až po prihlásení. Prihlás sa
Chces vidieť plný obsah a nie si zaregistrovaný? Zaregistruj sa
Zobrazit informácie o autoroviOdoslať súkromnú správu
browing3006   
Warezák


Založený: 14.05.2014
Príspevky: 1156
SMS donate: 0

PríspevokZaslal: Ne Jan 21, 2018 10:01 am Odpovedať s citátomCelkom dole

Zabiják a bodyguard / The Hitman's Bodyguard (2017)

CSFD:


Linky sa zobrazia až po prihlásení. Prihlás sa
Chces vidieť plný obsah a nie si zaregistrovaný? Zaregistruj sa


Image

The.Hitmans.Bodyguard.2017.480p.BDRip.XviD.AC3.DD5.1.CZ
The.Hitmans.Bodyguard.2017.480p.BDRip.x264.AC3.DD5.1.CZ
The.Hitmans.Bodyguard.2017.720p.BDRip.XviD.AC3.DD5.1.CZ


The.Hitmans.Bodyguard.2017.480.BDRip.XviD.AC3.DD5.1.CZ
Jazyk: Czech 5.1 640 Kbps
Subtitles: Czech forced

iNFO


Linky sa zobrazia až po prihlásení. Prihlás sa
Chces vidieť plný obsah a nie si zaregistrovaný? Zaregistruj sa


Image

Linky sa zobrazia až po prihlásení. Prihlás sa
Chces vidieť plný obsah a nie si zaregistrovaný? Zaregistruj sa


The.Hitmans.Bodyguard.2017.480p.BDRip.x264.AC3.DD5.1.CZ

iNFO


Linky sa zobrazia až po prihlásení. Prihlás sa
Chces vidieť plný obsah a nie si zaregistrovaný? Zaregistruj sa


Image

Linky sa zobrazia až po prihlásení. Prihlás sa
Chces vidieť plný obsah a nie si zaregistrovaný? Zaregistruj sa


The.Hitmans.Bodyguard.2017.720p.BDRip.XviD.AC3.DD5.1.CZ

iNFO


Linky sa zobrazia až po prihlásení. Prihlás sa
Chces vidieť plný obsah a nie si zaregistrovaný? Zaregistruj sa


Image

Linky sa zobrazia až po prihlásení. Prihlás sa
Chces vidieť plný obsah a nie si zaregistrovaný? Zaregistruj sa

Subs: Czech forced

Linky sa zobrazia až po prihlásení. Prihlás sa
Chces vidieť plný obsah a nie si zaregistrovaný? Zaregistruj sa
Zobrazit informácie o autoroviOdoslať súkromnú správu
Sťahuj z HELLSHARE neobmedzene bez premium účtu!
Zobraziť príspevky z predchádzajúcich:      
Odpovedať na tému Thank Post


 Prejdi na:   



Zobraziť nasledujúcu tému
Zobraziť predchádzajúcu tému
Nemôžete odosielať nové témy do tohto fóra
Nemôžete odpovedať na témy v tomto fóre
Nemôžete upravovať svoje príspevky v tomto fóre
Nemôžete mazať svoje príspevky v tomto fóre
Nemôžete hlasovať v tomto fóre


Upozornenie: Žiadny zo zobrazovaných súborov sa nenachádza na tomto serveri. Autor stránky neberie žiadnu zodpovednost za príspevky odoslané uživatelmi. Nepoužívajte tieto stránky k distribúcii alebo k downloadu akýchkolvek materiálov, ku ktorým nemáte legálne opravnenie alebo licenciu. Všetky príspevky sem vkladáte na vlastnú zodpovednost. Autor stránky odmieta akúkolvek zodpovednost za prípadne porušovanie zákonov. Kopírovanie obsahu bez písomného súhlasu autora stránky je trestné.
V prípade, že ste narazili na nelegálny obsah prosím okamžite kontaktujte administrátora portálu.



Powered by phpBB © 2005 phpBB Group :: Časy uvádzané v GMT + 1 hodina
[ Nacítanie: 0.5s ] :: [ 30 Queries ] :: [ 45,784 stránok za dnes ] :: [ Dnes DB: 828,527 ] :: [ Max DB: 13,059,503 ]