Obsah fóra

lamky.net banner
Registrácia  •  Prihlásenie
 Tokio: Malý život ve velkém městě (2008) Zobraziť nasledujúcu tému
Zobraziť predchádzajúcu tému

Pridat tému do záložiek
Odpovedať na tému Thank Post
Autor Správa
Defiant   
Report poster


Založený: 12.01.2007
Príspevky: 250
SMS donate: 0
Bydlisko: Somewhere Between the Stars

PríspevokZaslal: Pi Feb 25, 2011 18:27 pm Odpovedať s citátomCelkom dole

Tokio: Malý život ve velkém městě / Tokyo: Living Small in the Big City (2008)

Image

Tokio, jedno z nejlidnatějších světových velkoměst, má všechno kromě prostoru. Žije zde 35 milionu lidí a v některých oblastech se hustota obyvatelstva vyšplhá až na 20 000 na kilometr čtvereční, což je třikrát víc než v Londýně. Jak tato technicky a esteticky vyspělá metropole ubytuje tolik lidí v tak stísněném prostoru? Této výzvy se ujali špičkoví architekti s velkými nápady o životě v malém. Průměrný byt v Tokiu má výměru 60 metrů čtverečních, tedy třikrát méně než běžný nový domov v Americe. Nevelký byt však může působit rozlehle díky iluzorním trikům se světlem, chytře skrytým úložným prostorům a mimořádně efektivnímu půdorysu. Jednomu z pěti majitelů bytu v Tokiu nezbývá prostor pro soukromou koupelnu, a tak využívají jeden z 1 100 lázeňských domů pro veřejnost. Miliony milovníků zvířat, kteří nemají místo pro vlastního mazlíčka, mohou navštívit kryté zoologické zahrady, kde mají možnost strávit příjemný čas s obyčejnými, avšak mimořádně hýčkanými kočkami. A pro obchodníky, kteří zmeškali poslední vlak domů a hledají ubytování, jsou k dispozici takzvané "kabinové hotely" nabízející nejmenší obytné prostory ve městě: místa na spaní velikosti telefonní budky vybavené televizí, které přijdou na méně než jízda taxíkem domů.


Linky sa zobrazia až po prihlásení. Prihlás sa
Chces vidieť plný obsah a nie si zaregistrovaný? Zaregistruj sa



Linky sa zobrazia až po prihlásení. Prihlás sa
Chces vidieť plný obsah a nie si zaregistrovaný? Zaregistruj sa
Zobrazit informácie o autoroviOdoslať súkromnú správu
Podakovania: VADER, caplan, sú vdační za túto tému.
cybernetic   
Nováčik


Založený: 07.12.2007
Príspevky: 94
SMS donate: 0
Bydlisko: East sidE - svk

PríspevokZaslal: St Jún 01, 2016 10:05 am Odpovedať s citátomCelkom dole

Tokio: Malý život ve velkém městě


info

Linky sa zobrazia až po prihlásení. Prihlás sa
Chces vidieť plný obsah a nie si zaregistrovaný? Zaregistruj sa



Citácia:
Tokio, jedno z nejlidnatějších světových velkoměst, má všechno kromě prostoru. Žije zde 35 milionu lidí a v některých oblastech se hustota obyvatelstva vyšplhá až na 20 000 na kilometr čtvereční, což je třikrát víc než v Londýně. Jak tato technicky a esteticky vyspělá metropole ubytuje tolik lidí v tak stísněném prostoru? Této výzvy se ujali špičkoví architekti s velkými nápady o životě v malém. Průměrný byt v Tokiu má výměru 60 metrů čtverečních, tedy třikrát méně než běžný nový domov v Americe. Nevelký byt však může působit rozlehle díky iluzorním trikům se světlem, chytře skrytým úložným prostorům a mimořádně efektivnímu půdorysu. Jednomu z pěti majitelů bytu v Tokiu nezbývá prostor pro soukromou koupelnu, a tak využívají jeden z 1 100 lázeňských domů pro veřejnost. Miliony milovníků zvířat, kteří nemají místo pro vlastního mazlíčka, mohou navštívit kryté zoologické zahrady, kde mají možnost strávit příjemný čas s obyčejnými, avšak mimořádně hýčkanými kočkami. A pro obchodníky, kteří zmeškali poslední vlak domů a hledají ubytování, jsou k dispozici takzvané "kabinové hotely" nabízející nejmenší obytné prostory ve městě: místa na spaní velikosti telefonní budky vybavené televizí, které přijdou na méně než jízda taxíkem domů.(oficiální text distributora)



Citácia:
Format : AVI
Format/Info : Audio Video Interleave
File size : 500 MiB
Duration : 50mn 9s
Overall bit rate mode : Variable
Overall bit rate : 1 393 Kbps
Writing application : VirtualDubMod 1.5.10.2 (build 2540/release)
Writing library : VirtualDubMod build 2540/release

Video
ID : 0
Format : MPEG-4 Visual
Format profile : Advanced [email protected]
Format settings, BVOP : 2
Format settings, QPel : No
Format settings, GMC : No warppoints
Format settings, Matrix : Default (H.263)
Muxing mode : Packed bitstream
Codec ID : XVID
Codec ID/Hint : XviD
Duration : 50mn 9s
Bit rate : 1 285 Kbps
Width : 656 pixels
Height : 352 pixels
Display aspect ratio : 1.85:1
Frame rate : 25.000 fps
Color space : YUV
Chroma subsampling : 4:2:0
Bit depth : 8 bits
Scan type : Progressive
Compression mode : Lossy
Bits/(Pixel*Frame) : 0.223
Stream size : 461 MiB (92%)
Writing library : XviD 1.2.1 (UTC 2008-12-04)

Audio
ID : 1
Format : MPEG Audio
Format version : Version 1
Format profile : Layer 3
Mode : Joint stereo
Mode extension : MS Stereo
Codec ID : 55
Codec ID/Hint : MP3
Duration : 50mn 9s
Bit rate mode : Variable
Bit rate : 95.5 Kbps
Minimum bit rate : 32.0 Kbps
Channel(s) : 2 channels
Sampling rate : 48.0 KHz
Compression mode : Lossy
Stream size : 34.3 MiB (7%)
Alignment : Aligned on interleaves
Interleave, duration : 24 ms (0.60 video frame)
Interleave, preload duratio : 305 ms
Writing library : LAME3.98r
Encoding settings : -m j -V 5 -q 2 -lowpass 16.5 --vbr-new -b 32





Linky sa zobrazia až po prihlásení. Prihlás sa
Chces vidieť plný obsah a nie si zaregistrovaný? Zaregistruj sa
Zobrazit informácie o autoroviOdoslať súkromnú správu
---
Zobraziť príspevky z predchádzajúcich:      
Odpovedať na tému Thank Post


 Prejdi na:   



Zobraziť nasledujúcu tému
Zobraziť predchádzajúcu tému
Nemôžete odosielať nové témy do tohto fóra
Nemôžete odpovedať na témy v tomto fóre
Nemôžete upravovať svoje príspevky v tomto fóre
Nemôžete mazať svoje príspevky v tomto fóre
Nemôžete hlasovať v tomto fóre


Upozornenie: Žiadny zo zobrazovaných súborov sa nenachádza na tomto serveri. Autor stránky neberie žiadnu zodpovednost za príspevky odoslané uživatelmi. Nepoužívajte tieto stránky k distribúcii alebo k downloadu akýchkolvek materiálov, ku ktorým nemáte legálne opravnenie alebo licenciu. Všetky príspevky sem vkladáte na vlastnú zodpovednost. Autor stránky odmieta akúkolvek zodpovednost za prípadne porušovanie zákonov. Kopírovanie obsahu bez písomného súhlasu autora stránky je trestné.
V prípade, že ste narazili na nelegálny obsah prosím okamžite kontaktujte administrátora portálu.



Powered by phpBB © 2005 phpBB Group :: Časy uvádzané v GMT
[ Nacítanie: 0.2s ] :: [ 21 Queries ] :: [ 34,447 stránok za dnes ] :: [ Dnes DB: 658,364 ] :: [ Max DB: 13,059,503 ]