Obsah fóra

lamky.net banner
Registrácia  •  Prihlásenie
 Kolik je hodin? / What Time Is It? (2008) Zobraziť nasledujúcu tému
Zobraziť predchádzajúcu tému

Pridat tému do záložiek
Odpovedať na tému Thank Post
Autor Správa
Defiant   
Report poster


Založený: 12.01.2007
Príspevky: 250
SMS donate: 0
Bydlisko: Somewhere Between the Stars

PríspevokZaslal: Ne Nov 14, 2010 21:08 pm Odpovedať s citátomCelkom dole

Kolik je hodin? / What Time Is It?

Image

Zdánlivě všední otázka nás může přivést k úvahám o tom, kdy se vlastně čas začal pro Zemi a lidstvo odvíjet a jak ho chápat.
Na rozdíl od zvířat jsme schopni vnímat čas. Díky tomu nám svět dává smysl. Rozlišujeme minulost, současnost i budoucnost. Otázku "kolik je hodin" si lidstvo klade celá tisíciletí a každá civilizace se s ní snažila po svém vypořádat. Sledování sluneční pouti, orloje, přesýpací nebo atomové hodiny nám umožnily běh času více méně přesně měřit. Ale co to vlastně je "čas"? Má nějaký začátek? Nebo je tu od nepaměti? A je to naše dnešní chápání času správné a definitivní?

dokumentárny film, BBC Veľká Británia, 2008

Web Info:

Linky sa zobrazia až po prihlásení. Prihlás sa
Chces vidieť plný obsah a nie si zaregistrovaný? Zaregistruj sa


DVB Rip ČT 2 | CZ dabing | AVI | XviD 720x400 25fps 1558Kbps | MP3 ~138Kbps 2CH 48KHz | 49:04min | 600MB

Náhľady:

Linky sa zobrazia až po prihlásení. Prihlás sa
Chces vidieť plný obsah a nie si zaregistrovaný? Zaregistruj sa


Download bez hesla:

Linky sa zobrazia až po prihlásení. Prihlás sa
Chces vidieť plný obsah a nie si zaregistrovaný? Zaregistruj sa


Linky sa zobrazia až po prihlásení. Prihlás sa
Chces vidieť plný obsah a nie si zaregistrovaný? Zaregistruj sa


Linky sa zobrazia až po prihlásení. Prihlás sa
Chces vidieť plný obsah a nie si zaregistrovaný? Zaregistruj sa
Zobrazit informácie o autoroviOdoslať súkromnú správu
Podakovania: peto35386, VADER, Birko, sú vdační za túto tému.
cybernetic   
Nováčik


Založený: 07.12.2007
Príspevky: 94
SMS donate: 0
Bydlisko: East sidE - svk

PríspevokZaslal: St Jún 01, 2016 9:54 am Odpovedať s citátomCelkom dole

Kolik je hodin?


info

Linky sa zobrazia až po prihlásení. Prihlás sa
Chces vidieť plný obsah a nie si zaregistrovaný? Zaregistruj sa



Citácia:
Na rozdíl od zvířat jsme schopni vnímat čas. Díky tomu nám svět dává smysl. Rozlišujeme minulost, současnost i budoucnost. Otázku "kolik je hodin" si lidstvo klade celá tisíciletí a každá civilizace se s ní snažila po svém vypořádat. Sledování sluneční pouti, orloje, přesýpací nebo atomové hodiny nám umožnily běh času více méně přesně měřit. Ale co to vlastně je "čas"? Má nějaký začátek? Nebo je tu od nepaměti? A je to naše dnešní chápání času správné a definitivní?(oficiální text distributora)



Citácia:
Format : AVI
Format/Info : Audio Video Interleave
File size : 600 MiB
Duration : 49mn 4s
Overall bit rate mode : Variable
Overall bit rate : 1 709 Kbps
Writing application : VirtualDubMod 1.5.10.2 (build 2540/release)
Writing library : VirtualDubMod build 2540/release

Video
ID : 0
Format : MPEG-4 Visual
Format profile : Advanced Simple@L5
Format settings, BVOP : 2
Format settings, QPel : No
Format settings, GMC : No warppoints
Format settings, Matrix : Default (H.263)
Muxing mode : Packed bitstream
Codec ID : XVID
Codec ID/Hint : XviD
Duration : 49mn 4s
Bit rate : 1 558 Kbps
Width : 720 pixels
Height : 400 pixels
Display aspect ratio : 16:9
Frame rate : 25.000 fps
Color space : YUV
Chroma subsampling : 4:2:0
Bit depth : 8 bits
Scan type : Progressive
Compression mode : Lossy
Bits/(Pixel*Frame) : 0.216
Stream size : 547 MiB (91%)
Writing library : XviD 1.2.1 (UTC 2008-12-04)

Audio
ID : 1
Format : MPEG Audio
Format version : Version 1
Format profile : Layer 3
Mode : Joint stereo
Mode extension : MS Stereo
Codec ID : 55
Codec ID/Hint : MP3
Duration : 49mn 4s
Bit rate mode : Variable
Bit rate : 138 Kbps
Minimum bit rate : 32.0 Kbps
Channel(s) : 2 channels
Sampling rate : 48.0 KHz
Compression mode : Lossy
Stream size : 48.6 MiB (8%)
Alignment : Aligned on interleaves
Interleave, duration : 24 ms (0.60 video frame)
Interleave, preload duratio : 379 ms
Writing library : LAME3.98r
Encoding settings : -m j -V 5 -q 2 -lowpass 16.5 --vbr-new -b 32





Linky sa zobrazia až po prihlásení. Prihlás sa
Chces vidieť plný obsah a nie si zaregistrovaný? Zaregistruj sa
Zobrazit informácie o autoroviOdoslať súkromnú správu
Sťahuj z HELLSHARE neobmedzene bez premium účtu!
Zobraziť príspevky z predchádzajúcich:      
Odpovedať na tému Thank Post


 Prejdi na:   



Zobraziť nasledujúcu tému
Zobraziť predchádzajúcu tému
Nemôžete odosielať nové témy do tohto fóra
Nemôžete odpovedať na témy v tomto fóre
Nemôžete upravovať svoje príspevky v tomto fóre
Nemôžete mazať svoje príspevky v tomto fóre
Nemôžete hlasovať v tomto fóre


Upozornenie: Žiadny zo zobrazovaných súborov sa nenachádza na tomto serveri. Autor stránky neberie žiadnu zodpovednost za príspevky odoslané uživatelmi. Nepoužívajte tieto stránky k distribúcii alebo k downloadu akýchkolvek materiálov, ku ktorým nemáte legálne opravnenie alebo licenciu. Všetky príspevky sem vkladáte na vlastnú zodpovednost. Autor stránky odmieta akúkolvek zodpovednost za prípadne porušovanie zákonov. Kopírovanie obsahu bez písomného súhlasu autora stránky je trestné.
V prípade, že ste narazili na nelegálny obsah prosím okamžite kontaktujte administrátora portálu.



Powered by phpBB © 2005 phpBB Group :: Časy uvádzané v GMT + 1 hodina
[ Nacítanie: 0.1s ] :: [ 21 Queries ] :: [ 18,551 stránok za dnes ] :: [ Dnes DB: 306,749 ] :: [ Max DB: 13,059,503 ]