Obsah fóra

lamky.net banner
Registrácia  •  Prihlásenie
 Plitvice - krajina padajúcich jazier Zobraziť nasledujúcu tému
Zobraziť predchádzajúcu tému

Pridat tému do záložiek
Odpovedať na tému Thank Post
Autor Správa
cybernetic   
Nováčik


Založený: 07.12.2007
Príspevky: 96
SMS donate: 0
Bydlisko: East sidE - svk

PríspevokZaslal: Ut Máj 31, 2016 11:20 am Odpovedať s citátomCelkom dole

Plitvice - krajina padajúcich jazier


info

Linky sa zobrazia až po prihlásení. Prihlás sa
Chces vidieť plný obsah a nie si zaregistrovaný? Zaregistruj sa



Citácia:
Tento viacerými medzinárodnými cenami ocenený dokument sa zaoberá svetoznámym národným parkom Plitvice v Chorvátsku v Dinarskom pohorí. Plitvice sú mimoriadne bohaté na flóru a faunu a sú známe predovšetkým Plitvickými jazerami, ústiacimi do prekrásnych vodopádov. Autori dokumentu išli po prúde rieky, ktorá preteká celým parkom a kliesni si pritom cestu cez vápencové skaly.(oficiální text distributora)



Citácia:
Format : AVI
Format/Info : Audio Video Interleave
File size : 700 MiB
Duration : 53mn 5s
Overall bit rate mode : Variable
Overall bit rate : 1 843 Kbps
Writing application : VirtualDubMod 1.5.10.2 (build 2540/release)
Writing library : VirtualDubMod build 2540/release

Video
ID : 0
Format : MPEG-4 Visual
Format profile : Advanced Simple@L5
Format settings, BVOP : 2
Format settings, QPel : No
Format settings, GMC : No warppoints
Format settings, Matrix : Default (H.263)
Muxing mode : Packed bitstream
Codec ID : XVID
Codec ID/Hint : XviD
Duration : 53mn 5s
Bit rate : 1 685 Kbps
Width : 672 pixels
Height : 368 pixels
Display aspect ratio : 1.85:1
Frame rate : 25.000 fps
Color space : YUV
Chroma subsampling : 4:2:0
Bit depth : 8 bits
Scan type : Progressive
Compression mode : Lossy
Bits/(Pixel*Frame) : 0.273
Stream size : 640 MiB (91%)
Writing library : XviD 1.2.1 (UTC 2008-12-04)

Audio
ID : 1
Format : MPEG Audio
Format version : Version 1
Format profile : Layer 3
Mode : Joint stereo
Mode extension : MS Stereo
Codec ID : 55
Codec ID/Hint : MP3
Duration : 53mn 5s
Bit rate mode : Variable
Bit rate : 145 Kbps
Minimum bit rate : 32.0 Kbps
Channel(s) : 2 channels
Sampling rate : 48.0 KHz
Compression mode : Lossy
Stream size : 55.1 MiB (8%)
Alignment : Aligned on interleaves
Interleave, duration : 24 ms (0.60 video frame)
Interleave, preload duratio : 240 ms
Writing library : LAME3.98r
Encoding settings : -m j -V 5 -q 2 -lowpass 16.5 --vbr-new -b 32




Linky sa zobrazia až po prihlásení. Prihlás sa
Chces vidieť plný obsah a nie si zaregistrovaný? Zaregistruj sa
Zobrazit informácie o autoroviOdoslať súkromnú správu
Sťahuj z HELLSHARE neobmedzene bez premium účtu!
Zobraziť príspevky z predchádzajúcich:      
Odpovedať na tému Thank Post


 Prejdi na:   



Zobraziť nasledujúcu tému
Zobraziť predchádzajúcu tému
Nemôžete odosielať nové témy do tohto fóra
Nemôžete odpovedať na témy v tomto fóre
Nemôžete upravovať svoje príspevky v tomto fóre
Nemôžete mazať svoje príspevky v tomto fóre
Nemôžete hlasovať v tomto fóre


Upozornenie: Žiadny zo zobrazovaných súborov sa nenachádza na tomto serveri. Autor stránky neberie žiadnu zodpovednost za príspevky odoslané uživatelmi. Nepoužívajte tieto stránky k distribúcii alebo k downloadu akýchkolvek materiálov, ku ktorým nemáte legálne opravnenie alebo licenciu. Všetky príspevky sem vkladáte na vlastnú zodpovednost. Autor stránky odmieta akúkolvek zodpovednost za prípadne porušovanie zákonov. Kopírovanie obsahu bez písomného súhlasu autora stránky je trestné.
V prípade, že ste narazili na nelegálny obsah prosím okamžite kontaktujte administrátora portálu.



Powered by phpBB © 2005 phpBB Group :: Časy uvádzané v GMT + 1 hodina
[ Nacítanie: 0.1s ] :: [ 20 Queries ] :: [ 18,237 stránok za dnes ] :: [ Dnes DB: 342,667 ] :: [ Max DB: 13,059,503 ]