Obsah fóra

lamky.net banner
Registrácia  •  Prihlásenie
 Planéta bez ľudí Zobraziť nasledujúcu tému
Zobraziť predchádzajúcu tému

Pridat tému do záložiek
Odpovedať na tému Thank Post
Autor Správa
cybernetic   
Nováčik


Založený: 07.12.2007
Príspevky: 96
SMS donate: 0
Bydlisko: East sidE - svk

PríspevokZaslal: Ut Máj 31, 2016 11:18 am Odpovedať s citátomCelkom dole

Planéta bez ľudí


info

Linky sa zobrazia až po prihlásení. Prihlás sa
Chces vidieť plný obsah a nie si zaregistrovaný? Zaregistruj sa




Citácia:
Dokument vychází při předvídání budoucnosti z odborné znalosti a chápání historie. Odborníci na inženýrství, botaniku, ekologii, biologii, klimatologii a archeologii vytvářejí obraz toho, jak bude Země vypadat v průběhu dní, týdnů, měsíců, let a milénií poté, co zmizí lidé. Uvidíme, co se stane s okolním prostředím. Jaké druhy rostlin přežijí? Budou moře oplývat rybami? Která zvířata přežijí? Co se stane s elektrárnami? Změní se v časované bomby, až se zastaví? Otráví zemi navěky? Vrátí se někdy lidé? Zahájí tento koloběh opět člověk odhalováním našich rozvalin a snahou představit si, jak život vypadal v naší době?(oficiální text distributora)



Citácia:
Format : AVI
Format/Info : Audio Video Interleave
File size : 850 MiB
Duration : 1h 28mn
Overall bit rate : 1 342 Kbps
Writing application : VirtualDubMod 1.5.4.1 (build 2178/release)
Writing library : VirtualDubMod build 2178/release

Video
ID : 0
Format : MPEG-4 Visual
Format settings, BVOP : No
Format settings, QPel : No
Format settings, GMC : No warppoints
Format settings, Matrix : Default (H.263)
Codec ID : DX50
Codec ID/Hint : DivX 5
Duration : 1h 28mn
Bit rate : 1 143 Kbps
Width : 720 pixels
Height : 416 pixels
Display aspect ratio : 1.731
Frame rate : 25.000 fps
Color space : YUV
Chroma subsampling : 4:2:0
Bit depth : 8 bits
Scan type : Progressive
Compression mode : Lossy
Bits/(Pixel*Frame) : 0.153
Stream size : 724 MiB (85%)
Writing library : DivX 5.1.1 (Maupiti) (UTC 2003-11-19)

Audio
ID : 1
Format : AC-3
Format/Info : Audio Coding 3
Mode extension : CM (complete main)
Format settings, Endianness : Big
Codec ID : 2000
Duration : 1h 28mn
Bit rate mode : Constant
Bit rate : 192 Kbps
Channel(s) : 2 channels
Channel positions : Front: L R
Sampling rate : 48.0 KHz
Compression mode : Lossy
Stream size : 122 MiB (14%)
Alignment : Split accross interleaves
Interleave, duration : 96 ms (2.40 video frames)
Interleave, preload duratio : 96 ms
Language : Czech




Linky sa zobrazia až po prihlásení. Prihlás sa
Chces vidieť plný obsah a nie si zaregistrovaný? Zaregistruj sa
Zobrazit informácie o autoroviOdoslať súkromnú správu
Sťahuj z HELLSHARE neobmedzene bez premium účtu!
Zobraziť príspevky z predchádzajúcich:      
Odpovedať na tému Thank Post


 Prejdi na:   



Zobraziť nasledujúcu tému
Zobraziť predchádzajúcu tému
Nemôžete odosielať nové témy do tohto fóra
Nemôžete odpovedať na témy v tomto fóre
Nemôžete upravovať svoje príspevky v tomto fóre
Nemôžete mazať svoje príspevky v tomto fóre
Nemôžete hlasovať v tomto fóre


Upozornenie: Žiadny zo zobrazovaných súborov sa nenachádza na tomto serveri. Autor stránky neberie žiadnu zodpovednost za príspevky odoslané uživatelmi. Nepoužívajte tieto stránky k distribúcii alebo k downloadu akýchkolvek materiálov, ku ktorým nemáte legálne opravnenie alebo licenciu. Všetky príspevky sem vkladáte na vlastnú zodpovednost. Autor stránky odmieta akúkolvek zodpovednost za prípadne porušovanie zákonov. Kopírovanie obsahu bez písomného súhlasu autora stránky je trestné.
V prípade, že ste narazili na nelegálny obsah prosím okamžite kontaktujte administrátora portálu.



Powered by phpBB © 2005 phpBB Group :: Časy uvádzané v GMT + 1 hodina
[ Nacítanie: 0.1s ] :: [ 20 Queries ] :: [ 27,142 stránok za dnes ] :: [ Dnes DB: 522,342 ] :: [ Max DB: 13,059,503 ]