Obsah fóra

lamky.net banner
Registrácia  •  Prihlásenie
 Odkrývání Ježíše / Excavating Jesus (2009) Zobraziť nasledujúcu tému
Zobraziť predchádzajúcu tému

Pridat tému do záložiek
Odpovedať na tému Thank Post
Autor Správa
Defiant   
Report poster


Založený: 13.01.2007
Príspevky: 250
SMS donate: 0
Bydlisko: Somewhere Between the Stars

PríspevokZaslal: St Dec 21, 2011 22:26 pm Odpovedať s citátomCelkom dole

Odkrývání Ježíše / Excavating Jesus (2009)

Image

Nazýval se Králem židů a byl pravděpodobně považován za Spasitele. Římané ho popravili v období židovských Velikonoc a za hranicemi Jeruzaléma ukřižovali mnoho jeho stoupenců. Nejmenoval se však Ježíš... byl to Simon, samozvaný Spasitel, který zemřel čtyři roky před narozením Krista.
Nová analýza kamenné destičky z prvního století před naším letopočtem možná hovoří o prvním Spasiteli a jeho vzkříšení. Vydáme se do Izraele, abychom tento jedinečný a tajemný artefakt prozkoumali a spolu s odborníkem na svitky od Mrtvého moře se pozastavíme nad použitým písmem a obsahem. Z Jeruzaléma se pak přesuneme do Jericha, kde se zaměříme na klíčové archeologické památky, které by mohly pomoci dokázat, že Simon skutečně žil.



Linky sa zobrazia až po prihlásení. Prihlás sa
Chces vidieť plný obsah a nie si zaregistrovaný? Zaregistruj sa


::: RAPIDSHARE :::

Linky sa zobrazia až po prihlásení. Prihlás sa
Chces vidieť plný obsah a nie si zaregistrovaný? Zaregistruj sa


::: HELLSHARE :::

Linky sa zobrazia až po prihlásení. Prihlás sa
Chces vidieť plný obsah a nie si zaregistrovaný? Zaregistruj sa
Zobrazit informácie o autoroviOdoslať súkromnú správu
Podakovania: cikyno, caplan, sú vdační za túto tému.
B7u3A   
Warezák


Založený: 16.11.2005
Príspevky: 821
SMS donate: 0

PríspevokZaslal: St Máj 08, 2013 20:50 pm Odpovedať s citátomCelkom dole

Odkrývání Ježíše / Excavating Jesus (2009)



iNFO:

Dokumentární
USA, 2009, 50 min

Nazýval se Králem židů a byl pravděpodobně považován za Spasitele. Římané ho popravili v
období židovských Velikonoc a za hranicemi Jeruzaléma ukřižovali mnoho jeho stoupenců.
Nejmenoval se však Ježíš... byl to Simon, samozvaný Spasitel, který zemřel čtyři roky
před narozením Krista.
Nová analýza kamenné destičky z prvního století před naším letopočtem možná hovoří o
prvním Spasiteli a jeho vzkříšení. Vydáme se do Izraele, abychom tento jedinečný a
tajemný artefakt prozkoumali a spolu s odborníkem na svitky od Mrtvého moře se
pozastavíme nad použitým písmem a obsahem. Z Jeruzaléma se pak přesuneme do Jericha, kde
se zaměříme na klíčové archeologické památky, které by mohly pomoci dokázat, že Simon
skutečně žil.


CSFD LiNK:

Linky sa zobrazia až po prihlásení. Prihlás sa
Chces vidieť plný obsah a nie si zaregistrovaný? Zaregistruj sa


iNFO O TOMTO RELEASE:
General : Odkryvani.Jezise.2009.PDTV.XviD.CZ-DFT.avi
Format : AVI
Length : 499 MiB for 49mn 58s 640ms
Video #0 : XviD at 1 257 Kbps
Aspect : 672 x 368 (1.826) at 25.000 fps
Audio #0 : MPEG-1 Audio layer 3 at 128 Kbps
Infos : 2 channels, 48.0 KHz


DOWNLOAD:

Linky sa zobrazia až po prihlásení. Prihlás sa
Chces vidieť plný obsah a nie si zaregistrovaný? Zaregistruj sa


Linky sa zobrazia až po prihlásení. Prihlás sa
Chces vidieť plný obsah a nie si zaregistrovaný? Zaregistruj sa


UKAZKY:
Image
Zobrazit informácie o autoroviOdoslať súkromnú správu
cybernetic   
Nováčik


Založený: 07.12.2007
Príspevky: 96
SMS donate: 0
Bydlisko: East sidE - svk

PríspevokZaslal: Ut Máj 31, 2016 11:13 am Odpovedať s citátomCelkom dole

Odkrývání Ježíše

info

Linky sa zobrazia až po prihlásení. Prihlás sa
Chces vidieť plný obsah a nie si zaregistrovaný? Zaregistruj sa



Citácia:
Nazýval se Králem židů a byl pravděpodobně považován za Spasitele. Římané ho popravili v období židovských Velikonoc a za hranicemi Jeruzaléma ukřižovali mnoho jeho stoupenců. Nejmenoval se však Ježíš... byl to Simon, samozvaný Spasitel, který zemřel čtyři roky před narozením Krista. Nová analýza kamenné destičky z prvního století před naším letopočtem možná hovoří o prvním Spasiteli a jeho vzkříšení. Vydáme se do Izraele, abychom tento jedinečný a tajemný artefakt prozkoumali a spolu s odborníkem na svitky od Mrtvého moře se pozastavíme nad použitým písmem a obsahem. Z Jeruzaléma se pak přesuneme do Jericha, kde se zaměříme na klíčové archeologické památky, které by mohly pomoci dokázat, že Simon skutečně žil.(oficiální text distributora)



Citácia:
Format : AVI
Format/Info : Audio Video Interleave
File size : 499 MiB
Duration : 49mn 58s
Overall bit rate : 1 395 Kbps
Writing application : VirtualDubMod 1.5.10.2 (build 2540/release)
Writing library : VirtualDubMod build 2540/release

Video
ID : 0
Format : MPEG-4 Visual
Format profile : Advanced Simple@L5
Format settings, BVOP : 2
Format settings, QPel : No
Format settings, GMC : No warppoints
Format settings, Matrix : Default (H.263)
Muxing mode : Packed bitstream
Codec ID : XVID
Codec ID/Hint : XviD
Duration : 49mn 58s
Bit rate : 1 257 Kbps
Width : 672 pixels
Height : 368 pixels
Display aspect ratio : 1.85:1
Frame rate : 25.000 fps
Color space : YUV
Chroma subsampling : 4:2:0
Bit depth : 8 bits
Scan type : Progressive
Compression mode : Lossy
Bits/(Pixel*Frame) : 0.203
Stream size : 449 MiB (90%)
Writing library : XviD 1.2.1 (UTC 2008-12-04)

Audio
ID : 1
Format : MPEG Audio
Format version : Version 1
Format profile : Layer 3
Mode : Joint stereo
Mode extension : MS Stereo
Codec ID : 55
Codec ID/Hint : MP3
Duration : 49mn 58s
Bit rate mode : Constant
Bit rate : 128 Kbps
Channel(s) : 2 channels
Sampling rate : 48.0 KHz
Compression mode : Lossy
Stream size : 45.8 MiB (9%)
Alignment : Aligned on interleaves
Interleave, duration : 40 ms (1.00 video frame)
Interleave, preload duratio : 504 ms
Writing library : LAME3.98.2




Linky sa zobrazia až po prihlásení. Prihlás sa
Chces vidieť plný obsah a nie si zaregistrovaný? Zaregistruj sa
Zobrazit informácie o autoroviOdoslať súkromnú správu
Sťahuj z HELLSHARE neobmedzene bez premium účtu!
Zobraziť príspevky z predchádzajúcich:      
Odpovedať na tému Thank Post


 Prejdi na:   



Zobraziť nasledujúcu tému
Zobraziť predchádzajúcu tému
Nemôžete odosielať nové témy do tohto fóra
Nemôžete odpovedať na témy v tomto fóre
Nemôžete upravovať svoje príspevky v tomto fóre
Nemôžete mazať svoje príspevky v tomto fóre
Nemôžete hlasovať v tomto fóre


Upozornenie: Žiadny zo zobrazovaných súborov sa nenachádza na tomto serveri. Autor stránky neberie žiadnu zodpovednost za príspevky odoslané uživatelmi. Nepoužívajte tieto stránky k distribúcii alebo k downloadu akýchkolvek materiálov, ku ktorým nemáte legálne opravnenie alebo licenciu. Všetky príspevky sem vkladáte na vlastnú zodpovednost. Autor stránky odmieta akúkolvek zodpovednost za prípadne porušovanie zákonov. Kopírovanie obsahu bez písomného súhlasu autora stránky je trestné.
V prípade, že ste narazili na nelegálny obsah prosím okamžite kontaktujte administrátora portálu.



Powered by phpBB © 2005 phpBB Group :: Časy uvádzané v GMT + 1 hodina
[ Nacítanie: 0.2s ] :: [ 22 Queries ] :: [ 28,174 stránok za dnes ] :: [ Dnes DB: 542,122 ] :: [ Max DB: 13,059,503 ]