Obsah fóra

lamky.net banner
Registrácia  •  Prihlásenie
 Tajemná záře nad Pacifikem / Final Countdown, The (1980) Zobraziť nasledujúcu tému
Zobraziť predchádzajúcu tému

Pridat tému do záložiek
Táto téma je zamknutá bez možností úpravy príspevkov a písania odpovedí
Autor Správa
fefed   
Pokročilý


Založený: 19.04.2009
Príspevky: 193
SMS donate: 0

PríspevokZaslal: Ne Aug 31, 2014 17:19 pm Odpovedať s citátomCelkom dole

Image
Drama / Dobrodružný / Sci-Fi / Válečný

USA, 1980, 103 min
Režie:
Don Taylor
Hudba:
John Scott, Alan Howarth
Hrají:
Kirk Douglas, Martin Sheen, Katharine Ross, James Farentino, Charles Durning, Sun - tek Oh, Lloyd Kaufman, Peter Douglas, Richard Liberty, Ron O'Neal
Obsah

Výročie veľkej americkej hanby a historickej traumy stále zanecháva živé stopy. Útok na prístav Pearl Harbor bol dovtedy nepredstaviteľným. Teraz, po takmer štyridsiatich rokoch sa americká lietadlová loď na čele s kapitánom Matthewom Yellandom (Kirk Douglas) plaví vodami na miestach, kadiaľ prechádzala japonská flotila pri útoku na americkú základňu. Nikto nevie, ako sa to stalo, ale z radarov loď kapitána Yellanda zmizla. O malú chvíľu preletia nad loďou japonské lietadlá. Skvelé napobeniny, hovorí posádka, lenže lietadlá útočia. Znie to neuveriteľne, ale loď prešla časovou bránou do iného kontinua a pred ňou sa nachádza japonská flotila s cieľom zaútočiť na Pearl Harbor. Píše sa rok 1941 a kapitán Matthew Yelland má možnosť zmeniť beh dejín..


Linky sa zobrazia až po prihlásení. Prihlás sa
Chces vidieť plný obsah a nie si zaregistrovaný? Zaregistruj sa


General
Complete name : C:\downloads\avi\TAJEMNA_ZARE\tajzarnadpac.avi
Format : AVI
Format/Info : Audio Video Interleave
File size : 701 MiB
Duration : 1h 38mn
Overall bit rate : 996 Kbps
Movie name : TAJEMNA_ZARE.Title2.DVDRip
Writing application : Lavf52.78.4
Original source form/Name : TAJEMNA_ZARE

Video
ID : 0
Format : MPEG-4 Visual
Format profile : Advanced Simple@L5
Format settings, BVOP : 2
Format settings, QPel : No
Format settings, GMC : No warppoints
Format settings, Matrix : Default (H.263)
Muxing mode : Packed bitstream
Codec ID : DX50
Codec ID/Hint : DivX 5
Duration : 1h 38mn
Bit rate : 762 Kbps
Width : 720 pixels
Height : 308 pixels
Display aspect ratio : 2.35:1
Frame rate : 25.000 fps
Color space : YUV
Chroma subsampling : 4:2:0
Bit depth : 8 bits
Scan type : Progressive
Compression mode : Lossy
Bits/(Pixel*Frame) : 0.137
Stream size : 536 MiB (76%)
Writing library : XviD 1.2.1 (UTC 2008-12-04)

Audio
ID : 1
Format : AC-3
Format/Info : Audio Coding 3
Mode extension : CM (complete main)
Codec ID : 2000
Duration : 1h 38mn
Bit rate mode : Constant
Bit rate : 224 Kbps
Channel(s) : 2 channels
Channel positions : Front: L R
Sampling rate : 48.0 KHz
Bit depth : 16 bits
Compression mode : Lossy
Stream size : 158 MiB (22%)
Alignment : Aligned on interleaves
Interleave, duration : 32 ms (0.80 video frame)
Interleave, preload duration : 32 ms



701mb
Image

Linky sa zobrazia až po prihlásení. Prihlás sa
Chces vidieť plný obsah a nie si zaregistrovaný? Zaregistruj sa


Image

Linky sa zobrazia až po prihlásení. Prihlás sa
Chces vidieť plný obsah a nie si zaregistrovaný? Zaregistruj sa


Image

Linky sa zobrazia až po prihlásení. Prihlás sa
Chces vidieť plný obsah a nie si zaregistrovaný? Zaregistruj sa


Superbshare

Linky sa zobrazia až po prihlásení. Prihlás sa
Chces vidieť plný obsah a nie si zaregistrovaný? Zaregistruj sa


Image

Linky sa zobrazia až po prihlásení. Prihlás sa
Chces vidieť plný obsah a nie si zaregistrovaný? Zaregistruj sa


Image

Linky sa zobrazia až po prihlásení. Prihlás sa
Chces vidieť plný obsah a nie si zaregistrovaný? Zaregistruj sa


Image

Linky sa zobrazia až po prihlásení. Prihlás sa
Chces vidieť plný obsah a nie si zaregistrovaný? Zaregistruj sa
Zobrazit informácie o autoroviOdoslať súkromnú správu
Presunul: Po Sep 01, 2014 20:17 pm pody80 z Filmy - sk/cz dabing do Kôš
Sťahuj z HELLSHARE neobmedzene bez premium účtu!
Zobraziť príspevky z predchádzajúcich:      
Táto téma je zamknutá bez možností úpravy príspevkov a písania odpovedí


 Prejdi na:   



Zobraziť nasledujúcu tému
Zobraziť predchádzajúcu tému
Nemôžete odosielať nové témy do tohto fóra
Nemôžete odpovedať na témy v tomto fóre
Nemôžete upravovať svoje príspevky v tomto fóre
Nemôžete mazať svoje príspevky v tomto fóre
Nemôžete hlasovať v tomto fóre


Upozornenie: Žiadny zo zobrazovaných súborov sa nenachádza na tomto serveri. Autor stránky neberie žiadnu zodpovednost za príspevky odoslané uživatelmi. Nepoužívajte tieto stránky k distribúcii alebo k downloadu akýchkolvek materiálov, ku ktorým nemáte legálne opravnenie alebo licenciu. Všetky príspevky sem vkladáte na vlastnú zodpovednost. Autor stránky odmieta akúkolvek zodpovednost za prípadne porušovanie zákonov. Kopírovanie obsahu bez písomného súhlasu autora stránky je trestné.
V prípade, že ste narazili na nelegálny obsah prosím okamžite kontaktujte administrátora portálu.



Powered by phpBB © 2005 phpBB Group :: Časy uvádzané v GMT + 1 hodina
[ Nacítanie: 0.2s ] :: [ 19 Queries ] :: [ 4,624 stránok za dnes ] :: [ Dnes DB: 83,350 ] :: [ Max DB: 13,059,503 ]