Obsah fóra

lamky.net banner
Registrácia  •  Prihlásenie
 Noční můra v Elm Street / 720p /CZ+EN Zobraziť nasledujúcu tému
Zobraziť predchádzajúcu tému

Pridat tému do záložiek
Odpovedať na tému Thank Post
Autor Správa
edios   
Warezák


Založený: 20.09.2011
Príspevky: 268
SMS donate: 0

PríspevokZaslal: Pi Mar 16, 2012 1:51 am Odpovedať s citátomCelkom dole

Název: Noční můra v Elm Street / A Nightmare on Elm Street (1984)

Zdroj: A.Nightmare.On.Elm.Street.1984.Bluray.1080p.DTS.En.CZ

Image

Image

Image


Linky sa zobrazia až po prihlásení. Prihlás sa
Chces vidieť plný obsah a nie si zaregistrovaný? Zaregistruj sa


Image

Citácia:
Horor / Thriller
USA, 1984, 91 min


CSFD 75 %
IMDb Rating 7.4


Režie: Wes Craven
Hudba: Charles Bernstein
Hrají: Robert Englund, Ronee Blakley, Heather Langenkamp, Amanda Wyss, Jsu Garcia, Johnny Depp, John Saxon, Lin Shaye, David Andrews, Shashawnee Hall


Nancy (Heather Langenkamp) prožila smrt svých přátel. Matka a její blízké okolí si myslí, že se zbláznila a vytváří si vlastní postavu, která je zabila. Jenže postupem času napovrch vyplouvají důkazy, že vrahem je Freddy Krueger (Robert Englund), který se jí zjevuje prostřednictvím snů. Nancy zjistí, že v minulosti zabil 20 dětí a rodiče se sami pomstili, když selhaly vyšetřující orgány. Nezbývá jí než se vydat do posledního nerovného boje s Freddym a záchranou jí může být právě její otec (John Saxon).

Complete name : D:\stazene soubory\Nme.by.dadinek2.of.poweruploaders\Noční můra v Elm Street 1984.mkv
Format : Matroska
File size : 10.1 GiB
Duration : 1h 31mn
Overall bit rate : 15.9 Mbps
Movie name : nocni mura
Encoded date : UTC 2011-11-18 19:17:24
Writing application : mkvmerge v2.2.0 ('Turn It On Again') built on Mar 4 2008 13:20:25
Writing library : libebml v0.7.7 + libmatroska v0.8.1

Video
ID : 1
Format : AVC
Format/Info : Advanced Video Codec
Format profile : High@L5.1
Format settings, CABAC : Yes
Format settings, ReFrames : 2 frames
Muxing mode : Container profile=Unknown@5.1
Codec ID : V_MPEG4/ISO/AVC
Duration : 1h 31mn
Bit rate : 11.9 Mbps
Width : 1 920 pixels
Height : 1 078 pixels
Display aspect ratio : 16/9
Frame rate : 23.976 fps
Resolution : 24 bits
Colorimetry : 4:2:0
Scan type : Progressive
Bits/(Pixel*Frame) : 0.240
Stream size : 7.58 GiB (75%)

Audio #1
ID : 2
Format : DTS
Format/Info : Digital Theater Systems
Codec ID : A_DTS
Duration : 1h 31mn
Bit rate mode : Constant
Bit rate : 1 510 Kbps
Channel(s) : 6 channels
Channel positions : Front: L C R, Surround: L R, LFE
Sampling rate : 48.0 KHz
Resolution : 24 bits
Video delay : 64ms
Stream size : 985 MiB (10%)
Language : Czech

Audio #2
ID : 3
Format : DTS
Format/Info : Digital Theater Systems
Codec ID : A_DTS
Duration : 1h 31mn
Bit rate mode : Constant
Bit rate : 1 510 Kbps
Channel(s) : 6 channels
Channel positions : Front: L C R, Surround: L R, LFE
Sampling rate : 48.0 KHz
Resolution : 24 bits
Stream size : 985 MiB (10%)
Language : English

Audio #3
ID : 4
Format : AC-3
Format/Info : Audio Coding 3
Codec ID : A_AC3
Duration : 1h 31mn
Bit rate mode : Constant
Bit rate : 640 Kbps
Channel(s) : 6 channels
Channel positions : Front: L C R, Surround: L R, LFE
Sampling rate : 48.0 KHz
Stream size : 418 MiB (4%)
Language : Czech

Text
ID : 5
Format : VobSub
Codec ID : S_VOBSUB
Codec ID/Info : The same subtitle format used on DVDs
Language : Czech



Image

Image


Linky sa zobrazia až po prihlásení. Prihlás sa
Chces vidieť plný obsah a nie si zaregistrovaný? Zaregistruj sa


Image


Linky sa zobrazia až po prihlásení. Prihlás sa
Chces vidieť plný obsah a nie si zaregistrovaný? Zaregistruj sa


Image


Linky sa zobrazia až po prihlásení. Prihlás sa
Chces vidieť plný obsah a nie si zaregistrovaný? Zaregistruj sa



Image


Linky sa zobrazia až po prihlásení. Prihlás sa
Chces vidieť plný obsah a nie si zaregistrovaný? Zaregistruj sa
Zobrazit informácie o autoroviOdoslať súkromnú správu
Sťahuj z HELLSHARE neobmedzene bez premium účtu!
Zobraziť príspevky z predchádzajúcich:      
Odpovedať na tému Thank Post


 Prejdi na:   



Zobraziť nasledujúcu tému
Zobraziť predchádzajúcu tému
Nemôžete odosielať nové témy do tohto fóra
Nemôžete odpovedať na témy v tomto fóre
Nemôžete upravovať svoje príspevky v tomto fóre
Nemôžete mazať svoje príspevky v tomto fóre
Nemôžete hlasovať v tomto fóre


Upozornenie: Žiadny zo zobrazovaných súborov sa nenachádza na tomto serveri. Autor stránky neberie žiadnu zodpovednost za príspevky odoslané uživatelmi. Nepoužívajte tieto stránky k distribúcii alebo k downloadu akýchkolvek materiálov, ku ktorým nemáte legálne opravnenie alebo licenciu. Všetky príspevky sem vkladáte na vlastnú zodpovednost. Autor stránky odmieta akúkolvek zodpovednost za prípadne porušovanie zákonov. Kopírovanie obsahu bez písomného súhlasu autora stránky je trestné.
V prípade, že ste narazili na nelegálny obsah prosím okamžite kontaktujte administrátora portálu.



Powered by phpBB © 2005 phpBB Group :: Časy uvádzané v GMT + 1 hodina
[ Nacítanie: 0.1s ] :: [ 20 Queries ] :: [ 107,516 stránok za dnes ] :: [ Dnes DB: 2,211,286 ] :: [ Max DB: 13,059,503 ]