Obsah fóra

lamky.net banner
Registrácia  •  Prihlásenie
 Resident Evil (2002) / 1080p /EN+CZ Zobraziť nasledujúcu tému
Zobraziť predchádzajúcu tému

Pridat tému do záložiek
Odpovedať na tému Thank Post
Autor Správa
Hacker21   
Penzista


Založený: 03.12.2006
Príspevky: 179
SMS donate: 0

PríspevokZaslal: Po Dec 28, 2009 10:55 am Odpovedať s citátomCelkom dole

Resident.Evil.2002.1080p.BluRay.DTS.x264-hV+CZaudio

Image

Image

Linky sa zobrazia až po prihlásení. Prihlás sa
Chces vidieť plný obsah a nie si zaregistrovaný? Zaregistruj sa


Image

Linky sa zobrazia až po prihlásení. Prihlás sa
Chces vidieť plný obsah a nie si zaregistrovaný? Zaregistruj sa



Image

Linky sa zobrazia až po prihlásení. Prihlás sa
Chces vidieť plný obsah a nie si zaregistrovaný? Zaregistruj sa


Image

Linky sa zobrazia až po prihlásení. Prihlás sa
Chces vidieť plný obsah a nie si zaregistrovaný? Zaregistruj sa


Image

Linky sa zobrazia až po prihlásení. Prihlás sa
Chces vidieť plný obsah a nie si zaregistrovaný? Zaregistruj sa


Image

Linky sa zobrazia až po prihlásení. Prihlás sa
Chces vidieť plný obsah a nie si zaregistrovaný? Zaregistruj sa


Image

Linky sa zobrazia až po prihlásení. Prihlás sa
Chces vidieť plný obsah a nie si zaregistrovaný? Zaregistruj sa


Image

Linky sa zobrazia až po prihlásení. Prihlás sa
Chces vidieť plný obsah a nie si zaregistrovaný? Zaregistruj sa



Image

Linky sa zobrazia až po prihlásení. Prihlás sa
Chces vidieť plný obsah a nie si zaregistrovaný? Zaregistruj sa




Image

Linky sa zobrazia až po prihlásení. Prihlás sa
Chces vidieť plný obsah a nie si zaregistrovaný? Zaregistruj sa
Zobrazit informácie o autoroviOdoslať súkromnú správu
Podakovania: pojme311, je vdačný za túto tému.
slon335   
Pokročilý


Založený: 29.11.2009
Príspevky: 111
SMS donate: 0

PríspevokZaslal: Po Feb 21, 2011 22:34 pm Odpovedať s citátomCelkom dole

Resident.Evil.2002.720p.Blu.Ray.x264.AC3.CZ.EN.UniQue

Image

Tajemná společnost Umbrella Corporation, zabývající se genetickým výzkumem, provádí ve svých rozsáhlých podzemních laboratořích velice nebezpečné pokusy. V jednu chvíli uniká smrtící virus a centrální počítač laboratoře - Red Queen - uzavírá neprodyšně celou zasaženou oblast podzemního labyrintu a nechává zaměstnance, zasažené virem, uvnitř celého pekla. Elitní komando v čele s Alicí (Milla Jovovich) a Rain (Michelle Rodriguez) dostává úkol, který je otázkou života a smrti - izolovat virus, který ohrožuje celé lidstvo zjistit příčinu. Brzo zjišťují, že všechno je ještě horší než čekali - virem zasažení zaměstnanci nejsou ...

CSFD - FDB

Linky sa zobrazia až po prihlásení. Prihlás sa
Chces vidieť plný obsah a nie si zaregistrovaný? Zaregistruj sa


INFO O AVI

Linky sa zobrazia až po prihlásení. Prihlás sa
Chces vidieť plný obsah a nie si zaregistrovaný? Zaregistruj sa


ImageImageImage

SAMPLE

Linky sa zobrazia až po prihlásení. Prihlás sa
Chces vidieť plný obsah a nie si zaregistrovaný? Zaregistruj sa


DOWNLOAD - FILESERVE

Linky sa zobrazia až po prihlásení. Prihlás sa
Chces vidieť plný obsah a nie si zaregistrovaný? Zaregistruj sa


DOWNLOAD - FILESONIC

Linky sa zobrazia až po prihlásení. Prihlás sa
Chces vidieť plný obsah a nie si zaregistrovaný? Zaregistruj sa


DOWNLOAD - SHARERAPID

Linky sa zobrazia až po prihlásení. Prihlás sa
Chces vidieť plný obsah a nie si zaregistrovaný? Zaregistruj sa


LINKY LZE KOMBINOVAT
BEZ HESLA


..::Enjoy with Morrison335 of Unique.Crew.Uploaders!::..
Zobrazit informácie o autoroviOdoslať súkromnú správu
edios   
Warezák


Založený: 20.09.2011
Príspevky: 268
SMS donate: 0

PríspevokZaslal: Pi Mar 09, 2012 3:48 am Odpovedať s citátomCelkom dole

Název: Resident Evil (2001)

Zdroj: Resident.Evil.2002.Bluray.1080p.TRUEHD.x264.dxva-FraMeSToR.En.CZ

Image

Image


Image


Linky sa zobrazia až po prihlásení. Prihlás sa
Chces vidieť plný obsah a nie si zaregistrovaný? Zaregistruj sa


Image

Citácia:
Akční / Thriller / Horor / Sci-Fi
Velká Británie / Německo / Francie, 2002, 100 min


CSFD 68 %
IMDb Rating 6.5


Režie: Paul W.S. Anderson
Hudba: Marco Beltrami
Hrají: Milla Jovovich, Michelle Rodriguez, Eric Mabius, James Purefoy, Martin Crewes, Colin Salmon, Anna Bolt, Heike Makatsch, Jaymes Butler, Jason Isaacs, Jamie Harding


Tajemná společnost Umbrella Corporation, zabývající se genetickým výzkumem, provádí ve svých rozsáhlých podzemních laboratořích velice nebezpečné pokusy. V jednu chvíli uniká smrtící virus a centrální počítač laboratoře - Red Queen - uzavírá neprodyšně celou zasaženou oblast podzemního labyrintu a nechává zaměstnance, zasažené virem, uvnitř celého pekla. Elitní komando v čele s Alicí (Milla Jovovich) a Rain (Michelle Rodriguez) dostává úkol, který je otázkou života a smrti - izolovat virus, který ohrožuje celé lidstvo zjistit příčinu. Brzo zjišťují, že všechno je ještě horší než čekali - virem zasažení zaměstnanci nejsou ani živí ani mrtví - nyní jsou z nich mimořádně agresivní zombie - Nemrtvé bestie, které se skrývají v místě katastrofy. Jediné jejich škrábnutí nebo kousnutí infikuje zasaženého, který se okamžitě začne měnit v jejich druh. Alice a její vojenský tým má tři hodiny na to dokončit misi, než Nemrtví proniknou na povrch Země. Čeká je souboj s krvežíznivými bestiemi bez jakýkoli zábran a další děsivé překvapení v nitru laboratoře - zmutovaní psi a jiné výsledky experimentů. A ještě se proti nim postaví centrální počítač - Red Queen a ten, kdo to celé spustil. Dokáže tým překonat počítač, najít antivirus a ubránit se Nemrtvým? Kdo tohle peklo oživlého zla dokáže přežít? A kdo a kde je ten, jehož pomsta ohrožuje celé lidstvo?

Filmové zpracování populární hry plné akce, napětí a atraktivní hudby, přenáší zběsilé tempo celého dobrodružství na plátno a zachovává jedinečnost kultu jménem "Resident Evil". (oficiální text distributora)


Complete name : D:\filmy download\Srn.by.dadinek2.of.poweruploaders\Resident.Evil.2002.Bluray.1080p.TRUEHD.x264.dxva-FraMeSToR.mkv
Format : Matroska
File size : 12.5 GiB
Duration : 1h 40mn
Overall bit rate : 17.9 Mbps
Encoded date : UTC 2011-01-03 20:01:05
Writing application : mkvmerge v4.0.0 ('The Stars were mine') built on Jun 5 2010 17:44:09
Writing library : libebml v1.0.0 + libmatroska v1.0.0
Cover : Yes / Yes / Yes / Yes

Video
ID : 1
Format : AVC
Format/Info : Advanced Video Codec
Format profile : High@L4.1
Format settings, CABAC : Yes
Format settings, ReFrames : 3 frames
Muxing mode : Container profile=Unknown@4.1
Codec ID : V_MPEG4/ISO/AVC
Duration : 1h 40mn
Bit rate : 14.5 Mbps
Nominal bit rate : 14.9 Mbps
Width : 1 920 pixels
Height : 1 040 pixels
Display aspect ratio : 16/9
Frame rate : 23.976 fps
Resolution : 24 bits
Colorimetry : 4:2:0
Scan type : Progressive
Bits/(Pixel*Frame) : 0.304
Stream size : 10.2 GiB (81%)
Title : Resident.Evil.2002.Bluray.1080p.TRUEHD.x264.dxva-FraMeSToR
Writing library : x264 core 104 r1677 19df41a
Encoding settings : cabac=1 / ref=4 / deblock=1:-2:-2 / analyse=0x3:0x113 / me=umh / subme=9 / psy=1 / psy_rd=1.00:0.00 / mixed_ref=1 / me_range=24 / chroma_me=1 / trellis=2 / 8x8dct=1 / cqm=0 / deadzone=21,11 / fast_pskip=1 / chroma_qp_offset=-2 / threads=12 / sliced_threads=0 / nr=0 / decimate=1 / interlaced=0 / constrained_intra=0 / bframes=5 / b_pyramid=1 / b_adapt=2 / b_bias=0 / direct=2 / weightb=1 / open_gop=0 / weightp=2 / keyint=250 / keyint_min=23 / scenecut=40 / intra_refresh=0 / rc_lookahead=60 / rc=2pass / mbtree=1 / bitrate=14905 / ratetol=2.0 / qcomp=0.70 / qpmin=10 / qpmax=51 / qpstep=4 / cplxblur=20.0 / qblur=0.5 / vbv_maxrate=50000 / vbv_bufsize=50000 / ip_ratio=1.40 / aq=1:0.80 / nal_hrd=none

Audio #1
ID : 2
Format : AC-3
Format/Info : Audio Coding 3
Codec ID : A_AC3
Duration : 1h 40mn
Bit rate mode : Constant
Bit rate : 448 Kbps
Channel(s) : 2 channels
Channel positions : L R
Sampling rate : 48.0 KHz
Stream size : 322 MiB (3%)
Title : DD 2.0 CZ@448Kbps
Language : Czech

Audio #2
ID : 3
Format : DTS
Format/Info : Digital Theater Systems
Codec ID : A_DTS
Duration : 1h 40mn
Bit rate mode : Constant
Bit rate : 1 510 Kbps
Channel(s) : 6 channels
Channel positions : Front: L C R, Surround: L R, LFE
Sampling rate : 48.0 KHz
Resolution : 24 bits
Stream size : 1.06 GiB (8%)
Title : DTS EN@1,5Mb/s

Audio #3
ID : 4
Format : AC-3
Format/Info : Audio Coding 3
Codec ID : A_AC3
Duration : 1h 40mn
Bit rate mode : Constant
Bit rate : 640 Kbps
Channel(s) : 6 channels
Channel positions : Front: L C R, Surround: L R, LFE
Sampling rate : 48.0 KHz
Stream size : 460 MiB (4%)
Title : DD 5.1 EN@640Kbps

Audio #4
ID : 5
Format : AC-3
Format/Info : Audio Coding 3
Format profile : Dolby Digital
Codec ID : A_AC3
Duration : 1h 40mn
Bit rate mode : Constant
Bit rate : 192 Kbps
Channel(s) : 2 channels
Channel positions : L R
Sampling rate : 48.0 KHz
Stream size : 138 MiB (1%)

Audio #5
ID : 6
Format : AC-3
Format/Info : Audio Coding 3
Format profile : Dolby Digital
Codec ID : A_AC3
Duration : 1h 40mn
Bit rate mode : Constant
Bit rate : 192 Kbps
Channel(s) : 2 channels
Channel positions : L R
Sampling rate : 48.0 KHz
Stream size : 138 MiB (1%)

Text #1
ID : 7
Format : UTF-8
Codec ID : S_TEXT/UTF8
Codec ID/Info : UTF-8 Plain Text
Title : cz titulky
Language : Czech

Text #2
ID : 8
Format : UTF-8
Codec ID : S_TEXT/UTF8
Codec ID/Info : UTF-8 Plain Text
Title : en subtitles

Text #3
ID : 9
Format : UTF-8
Codec ID : S_TEXT/UTF8
Codec ID/Info : UTF-8 Plain Text
Language : Dutch



Image

Image


Linky sa zobrazia až po prihlásení. Prihlás sa
Chces vidieť plný obsah a nie si zaregistrovaný? Zaregistruj sa


Image


Linky sa zobrazia až po prihlásení. Prihlás sa
Chces vidieť plný obsah a nie si zaregistrovaný? Zaregistruj sa


Image


Linky sa zobrazia až po prihlásení. Prihlás sa
Chces vidieť plný obsah a nie si zaregistrovaný? Zaregistruj sa



Image


Linky sa zobrazia až po prihlásení. Prihlás sa
Chces vidieť plný obsah a nie si zaregistrovaný? Zaregistruj sa
Zobrazit informácie o autoroviOdoslať súkromnú správu
Sťahuj z HELLSHARE neobmedzene bez premium účtu!
Zobraziť príspevky z predchádzajúcich:      
Odpovedať na tému Thank Post


 Prejdi na:   



Zobraziť nasledujúcu tému
Zobraziť predchádzajúcu tému
Nemôžete odosielať nové témy do tohto fóra
Nemôžete odpovedať na témy v tomto fóre
Nemôžete upravovať svoje príspevky v tomto fóre
Nemôžete mazať svoje príspevky v tomto fóre
Nemôžete hlasovať v tomto fóre


Upozornenie: Žiadny zo zobrazovaných súborov sa nenachádza na tomto serveri. Autor stránky neberie žiadnu zodpovednost za príspevky odoslané uživatelmi. Nepoužívajte tieto stránky k distribúcii alebo k downloadu akýchkolvek materiálov, ku ktorým nemáte legálne opravnenie alebo licenciu. Všetky príspevky sem vkladáte na vlastnú zodpovednost. Autor stránky odmieta akúkolvek zodpovednost za prípadne porušovanie zákonov. Kopírovanie obsahu bez písomného súhlasu autora stránky je trestné.
V prípade, že ste narazili na nelegálny obsah prosím okamžite kontaktujte administrátora portálu.



Powered by phpBB © 2005 phpBB Group :: Časy uvádzané v GMT + 1 hodina
[ Nacítanie: 0.2s ] :: [ 22 Queries ] :: [ 495 stránok za dnes ] :: [ Dnes DB: 9,179 ] :: [ Max DB: 13,059,503 ]