Obsah fóra

lamky.net banner
Registrácia  •  Prihlásenie
 88 Minut / 88 Minutes (2007) Zobraziť nasledujúcu tému
Zobraziť predchádzajúcu tému

Pridat tému do záložiek
Odpovedať na tému Thank Post
Autor Správa
slon335   
Pokročilý


Založený: 29.11.2009
Príspevky: 111
SMS donate: 0

PríspevokZaslal: Ne Jan 22, 2012 19:36 pm Odpovedať s citátomCelkom dole

88.Minutes.2007.720p.BluRay.DTS.AC3.x264-ESiR (CZ,EN)
88 MINUT (88 Minutes) 2007

Image

Vysokoškolský profesor Dr. Jack Gramm, který zároveň pracuje jako forenzní psychiatr FBI, dostane ultimátum – zbývá mu 88 minut života. Aby se zachránil, musí Jack použít všechny své dovednosti a zkušenosti, aby zúžil okruh možných podezřelých, mezi něž patří nespokojení studenti, opuštěná milenka i sériový vrah, který sedí v cele smrti.
Jack Gramm založil celou svou kariéru na spolehlivém „určování“ povah lidí a faktorů rizik. Svoje expertní osvědčení získal díky případu sériového vraha Jona Forstera a nyní, s pocitem zadostiučinění, čeká na Forsterovu popravu. Ale když se začnou objevovat další podobné vraždy, musí Jack obhájit, že Forster je skutečně vinen, jak celou dobu tvrdil.


CSFD

Linky sa zobrazia až po prihlásení. Prihlás sa
Chces vidieť plný obsah a nie si zaregistrovaný? Zaregistruj sa


INFO

Linky sa zobrazia až po prihlásení. Prihlás sa
Chces vidieť plný obsah a nie si zaregistrovaný? Zaregistruj sa


SAMPLE

Linky sa zobrazia až po prihlásení. Prihlás sa
Chces vidieť plný obsah a nie si zaregistrovaný? Zaregistruj sa


DOWNLOAD - SHARE-RAPID

Linky sa zobrazia až po prihlásení. Prihlás sa
Chces vidieť plný obsah a nie si zaregistrovaný? Zaregistruj sa


DOWNLOAD - HELLSHARE

Linky sa zobrazia až po prihlásení. Prihlás sa
Chces vidieť plný obsah a nie si zaregistrovaný? Zaregistruj sa


DOWNLOAD - FILESONIC

Linky sa zobrazia až po prihlásení. Prihlás sa
Chces vidieť plný obsah a nie si zaregistrovaný? Zaregistruj sa




88.Minutes.2007.1080p.BluRay.DTS.AC3.x264-CiNEFiLE (CZ,EN)
88 MINUT (88 Minutes) 2007

INFO

Linky sa zobrazia až po prihlásení. Prihlás sa
Chces vidieť plný obsah a nie si zaregistrovaný? Zaregistruj sa


SAMPLE

Linky sa zobrazia až po prihlásení. Prihlás sa
Chces vidieť plný obsah a nie si zaregistrovaný? Zaregistruj sa


DOWNLOAD - SHARE-RAPID

Linky sa zobrazia až po prihlásení. Prihlás sa
Chces vidieť plný obsah a nie si zaregistrovaný? Zaregistruj sa


DOWNLOAD - HELLSHARE

Linky sa zobrazia až po prihlásení. Prihlás sa
Chces vidieť plný obsah a nie si zaregistrovaný? Zaregistruj sa


DOWNLOAD - FILESONIC

Linky sa zobrazia až po prihlásení. Prihlás sa
Chces vidieť plný obsah a nie si zaregistrovaný? Zaregistruj sa


- BEZ HESLA
- NA JINÉ SERVERY UPLOADOVAT NEBUDU, TAKŽE MNĚ O TO NEŽÁDEJTE
- REUPLOADUJTE KAM CHCETE
Zobrazit informácie o autoroviOdoslať súkromnú správu
edios   
Warezák


Založený: 20.09.2011
Príspevky: 268
SMS donate: 0

PríspevokZaslal: Št Mar 01, 2012 0:27 am Odpovedať s citátomCelkom dole

Název: 88 Minut / 88 Minutes (2007)

Zdroj: 88.Minutes.2007.1080p.BluRay.DTS.AC3.x264-CiNEFiLE.En.CZ

Image

Image


Image


Linky sa zobrazia až po prihlásení. Prihlás sa
Chces vidieť plný obsah a nie si zaregistrovaný? Zaregistruj sa


Image

Citácia:
Krimi / Drama / Thriller
USA / Kanada / Německo, 2007, 108 min


CSFD 60 %
IMDb Rating 5.8


Režie: Jon Avnet
Hudba: Ed Shearmur
Hrají: Al Pacino, Alicia Witt, Leelee Sobieski, Amy Brenneman, William Forsythe, Deborah Kara Unger, Ben McKenzie, Neal McDonough, Leah Cairns, Stephen Moyer, Christopher Redman, Brendan Fletcher, Michael Eklund, Kristina Copeland, Tammy Hui, Michal Yannai, Paul Campbell, Carrie Genzel, Mike Dopud, Trilby Glover, Kaj-Erik Eriksen


Vysokoškolský profesor Dr. Jack Gramm, který zároveň pracuje jako forenzní psychiatr FBI, dostane ultimátum – zbývá mu 88 minut života. Aby se zachránil, musí Jack použít všechny své dovednosti a zkušenosti, aby zúžil okruh možných podezřelých, mezi něž patří nespokojení studenti, opuštěná milenka i sériový vrah, který sedí v cele smrti.
Jack Gramm založil celou svou kariéru na spolehlivém „určování“ povah lidí a faktorů rizik. Svoje expertní osvědčení získal díky případu sériového vraha Jona Forstera a nyní, s pocitem zadostiučinění, čeká na Forsterovu popravu. Ale když se začnou objevovat další podobné vraždy, musí Jack obhájit, že Forster je skutečně vinen, jak celou dobu tvrdil. (oficiální text distributora)


Complete name : D:\filmy download\Msn.by.dadinek2.of.poweruploaders\88.Minutes.2007.1080p.BluRay.DTS.AC3.x264-CiNEFiLE (CZ,EN).mkv
Format : Matroska
File size : 8.29 GiB
Duration : 1h 50mn
Overall bit rate : 10.7 Mbps
Movie name : 88 Minutes (2007)
Encoded date : UTC 2012-01-17 11:13:01
Writing application : mkvmerge v3.0.0 ('Hang up your Hang-Ups') built on Dec 12 2009 15:20:35
Writing library : libebml v0.7.9 + libmatroska v0.8.1

Video
ID : 1
Format : AVC
Format/Info : Advanced Video Codec
Format profile : High@L5.1
Format settings, CABAC : Yes
Format settings, ReFrames : 5 frames
Muxing mode : Container profile=Unknown@5.1
Codec ID : V_MPEG4/ISO/AVC
Duration : 1h 50mn
Bit rate : 8 526 Kbps
Nominal bit rate : 8 740 Kbps
Width : 1 920 pixels
Height : 816 pixels
Display aspect ratio : 2.35
Frame rate : 24.000 fps
Resolution : 24 bits
Colorimetry : 4:2:0
Scan type : Progressive
Bits/(Pixel*Frame) : 0.227
Stream size : 6.61 GiB (80%)
Writing library : x264 core 59 r859 ce13bb6
Encoding settings : cabac=1 / ref=5 / deblock=1:0:0 / analyse=0x3:0x113 / me=umh / subme=7 / brdo=1 / mixed_ref=1 / me_range=16 / chroma_me=1 / trellis=1 / 8x8dct=1 / cqm=0 / deadzone=21,11 / chroma_qp_offset=0 / threads=6 / nr=0 / decimate=1 / mbaff=0 / bframes=3 / b_pyramid=1 / b_adapt=1 / b_bias=0 / direct=1 / wpredb=1 / bime=1 / keyint=250 / keyint_min=25 / scenecut=40(pre) / rc=2pass / bitrate=8740 / ratetol=1.0 / rceq='blurCplx^(1-qComp)' / qcomp=1.00 / qpmin=10 / qpmax=51 / qpstep=4 / cplxblur=20.0 / qblur=0.5 / ip_ratio=1.40 / pb_ratio=1.30 / aq=2:1.00
Language : English

Audio #1
ID : 2
Format : AC-3
Format/Info : Audio Coding 3
Codec ID : A_AC3
Duration : 1h 50mn
Bit rate mode : Constant
Bit rate : 448 Kbps
Channel(s) : 6 channels
Channel positions : Front: L C R, Surround: L R, LFE
Sampling rate : 48.0 KHz
Stream size : 356 MiB (4%)
Title : AC3 5.1 @ 448 Kbps
Language : Czech

Audio #2
ID : 3
Format : DTS
Format/Info : Digital Theater Systems
Codec ID : A_DTS
Duration : 1h 50mn
Bit rate mode : Constant
Bit rate : 1 510 Kbps
Channel(s) : 6 channels
Channel positions : Front: L C R, Surround: L R, LFE
Sampling rate : 48.0 KHz
Resolution : 16 bits
Stream size : 1.17 GiB (14%)
Title : DTS 5.1 @ 1,5 Mbit
Language : English

Text
ID : 4
Format : UTF-8
Codec ID : S_TEXT/UTF8
Codec ID/Info : UTF-8 Plain Text
Language : Czech



Image

Image


Linky sa zobrazia až po prihlásení. Prihlás sa
Chces vidieť plný obsah a nie si zaregistrovaný? Zaregistruj sa


Image


Linky sa zobrazia až po prihlásení. Prihlás sa
Chces vidieť plný obsah a nie si zaregistrovaný? Zaregistruj sa


Image


Linky sa zobrazia až po prihlásení. Prihlás sa
Chces vidieť plný obsah a nie si zaregistrovaný? Zaregistruj sa



Image


Linky sa zobrazia až po prihlásení. Prihlás sa
Chces vidieť plný obsah a nie si zaregistrovaný? Zaregistruj sa
Zobrazit informácie o autoroviOdoslať súkromnú správu
Sťahuj z HELLSHARE neobmedzene bez premium účtu!
Zobraziť príspevky z predchádzajúcich:      
Odpovedať na tému Thank Post


 Prejdi na:   



Zobraziť nasledujúcu tému
Zobraziť predchádzajúcu tému
Nemôžete odosielať nové témy do tohto fóra
Nemôžete odpovedať na témy v tomto fóre
Nemôžete upravovať svoje príspevky v tomto fóre
Nemôžete mazať svoje príspevky v tomto fóre
Nemôžete hlasovať v tomto fóre


Upozornenie: Žiadny zo zobrazovaných súborov sa nenachádza na tomto serveri. Autor stránky neberie žiadnu zodpovednost za príspevky odoslané uživatelmi. Nepoužívajte tieto stránky k distribúcii alebo k downloadu akýchkolvek materiálov, ku ktorým nemáte legálne opravnenie alebo licenciu. Všetky príspevky sem vkladáte na vlastnú zodpovednost. Autor stránky odmieta akúkolvek zodpovednost za prípadne porušovanie zákonov. Kopírovanie obsahu bez písomného súhlasu autora stránky je trestné.
V prípade, že ste narazili na nelegálny obsah prosím okamžite kontaktujte administrátora portálu.



Powered by phpBB © 2005 phpBB Group :: Časy uvádzané v GMT + 1 hodina
[ Nacítanie: 0.2s ] :: [ 21 Queries ] :: [ 269 stránok za dnes ] :: [ Dnes DB: 4,953 ] :: [ Max DB: 13,059,503 ]